Download PBC On Showtime 26 09 2020 1080i Full Event

Download PBC On Showtime 26 09 2020 1080i TS 60 GB 1 link DX-TV

 

PBC On Showtime 26 09 2020

 

 

 PBC On Showtime 26 09 2020

 

Download PBC On Showtime 26 09 2020 1080i Full Event

 

 

 

[su_expand more_text=”Show More Info” less_text=”Close all Info” height=”30″ text_color=”#000000″ link_color=”#e25f8b” link_style=”button” more_icon=”icon: arrow-down” less_icon=”icon: arrow-up”]

 

Complete name : PBC On Showtime 09-26-2020 1080i TS AAC.ts
Format : MPEG-TS
File size : 59.3 GiB
Duration : 7 h 22 min
bit rate mode : Constant
Overall bit rate : 19.2 Mb/s

PBC On Showtime 26 09 2020

Video
Menu ID : 1 (0x1)
Format : AVC
Format/Info : Advanced
Codec ID : 27
Duration : 6 h 41 min
Bit rate : 17.6 Mb/s
Width : 1 920 pixels
Height : 1 080 pixels
Display aspect ratio : 16:9
 rate : 29.970 (30000/1001) FPS
Color space : YUV
Chroma : 4:2:0
Bit depth : 8 bits
Scan type : MBAFF
type, store method : Interleaved fields
Scan order : Top Field First
Bits/(Pixel*Frame) : 0.283
Stream size : 49.4 GiB (83%)

PBC On Showtime 26 09 2020

Audio
ID : 4352 (0x1100)
Menu ID : 1 (0x1)
Format : AC-3
Format/Info : Audio Coding 3
Commercial name : Dolby Digital
Codec ID : 129
Duration : 7 h 22 min
Bit rate mode : Constant
Bit rate : 640 kb/s
Channel(s) : 2 channels
Channel layout : L R
Sampling rate : 48.0 kHz
Frame rate : 31.250 FPS (1536 SPF)
Compression mode : Lossy
Stream size : 1.98 GiB (3%)
Language : English
Service kind : Complete Main

PBC On Showtime 26 09 2020

The CHARLO DOUBLEHEADER takes place Saturday, September 26 on SHOWTIME PPV with an unprecedented event presented by Premier Boxing Champions. The PPV begins at a special time of 7 p.m. ET/4 p.m. PT and features six compelling fights in all, five of which are world title fights, on the same night for one price. The SHOWTIME PPV telecast begins with the Jermall Charlo vs. Sergiy Derevyanchenko three-fight card followed by a 30-minute intermission and then the Jermell Charlo vs. Jeison Rosario three-fight card. ORDER PPV: https://pbcham.ps/OrderPPV-Sept26 Part one of the SHOWTIME PPV is headlined by WBC Middleweight Champion Jermall Charlo facing top contender Sergiy Derevyanchenko. WBA Super Bantamweight Champion Brandon Figueroa will defend his title against 122-pound contender Damien Vázquez in the co-featured bout, while WBO Bantamweight World Champion John Riel Casimero faces off against unbeaten Duke Micah in the pay-per-view opener. ORDER PPV: https://pbcham.ps/OrderPPV-Sept26

 

Download PBC On Showtime 26 09 2020 1080i Full Event

 

 

[/su_expand]

 

 

 

 

Uploaded By Site DX-TV.com

 

 

 

Download Links with premium High Speed   

 

 

[su_expand more_text=”Open Download Links” less_text=”Close all Links” height=”0″ text_color=”#4b9a3e” link_color=”#1b3fa8″ link_style=”button” more_icon=”icon: link” less_icon=”icon: unlink”]
 

 

60 GB 1 link

 

rapidgator.net

 

 

 

[/su_expand]
dx-tv.com

 

urlfree.net

Leave a Reply

Your email address will not be published. Required fields are marked *

This site uses Akismet to reduce spam. Learn how your comment data is processed.