Download Wrestling Free Raw 2020 10 26 WWE 1080p

Watch WWE Monday Night Raw 2020 10 26 1080p HDTV Star DX-TV

Download WWE Raw

 

 Download WWE Raw
 

Download Wrestling Free Raw 2020 10 26 WWE 1080p

 

Complete name : WWE.Monday.Night.Raw.2020.10.26.1080p.HDTV.x264-Star.mkv
Format : Matroska
Format version : Version 4
File size : 9.11 GiB
Duration : 2 h 7 min
Overall bit rate : 10.3 Mb/s
Writing library : Lavf58.29

Download WWE Raw

Video
ID : 1
Format : AVC
Duration : 2 h 7 min
Bit rate : 10 000 kb/s
Width : 1 920 pixels
Height : 1 078 pixels
Display aspect ratio : 16:9
Frame rate mode : Constant
Frame rate : 29.970 FPS
Color space : YUV
Chroma subsampling : 4:2:0
Bit depth : 8 bits
Scan type : Progressive
Bits/(Pixel*Frame) : 0.161
Stream size : 8.70 GiB (96%)
Forced : No
Color range : Limited
Color primaries : BT.709
Transfer characteristics : BT.709
Matrix coefficients : BT.709

Download WWE Raw

Audio
ID : 2
Format : AC-3
Format/Info : Audio
Commercial name : Dolby
Codec ID : A_AC3
Duration : 2 h 7 min
Bit rate mode : Constant
Bit rate : 256 kb/s
Channel(s) : 2 channels
Channel layout : L R
Sampling rate : 48.0 kHz
Frame rate : 31.250 FPS
Compression mode : Lossy
Delay relative to video : -5 ms
Stream size : 233 MiB
Title : Stereo
Service kind : Complete Main
Default : Yes
Forced : No

Download WWE Raw

Drew McIntyre to kick off Raw

Just 24 hours after losing the WWE Championship to Randy Orton inside Hell in a Cell, Drew McIntyre will kick off tonight’s episode of Monday Night Raw.

The Scottish Superstar battled The Viper inside, outside and on top of the career-altering steel structure and even plummeted from the side of the cage through an announce table.

What will McIntyre have to say after losing his title in the wake of such epic carnage? Will it lead another volatile altercation with Orton?

Don’t miss a moment of Raw, tonight at 8/7 C on USA Network.

 

Download Wrestling Free Raw 2020 10 26 WWE 1080p

 

Watch online

 

 

Server 1

 

 

 

 

Download WWE Raw

 

 

 

 

Server-2

 

 

 

watch now

 

 

 

Uploaded By Site DX-TV.com

 

 

Download Links with premium High Speed   

 

 

 

nitroflare.com

 

 

 

rapidgator.net

 

 

dx-tv.com

 

urlfree.net

Leave a Reply

Your email address will not be published. Required fields are marked *

This site uses Akismet to reduce spam. Learn how your comment data is processed.