Download Bellator 250 1080p Mousasi vs Lima HDTV Star

Bellator 250 Free Mousasi vs Lima 1080p HDTV Star DX-TV

Download Bellator 250

 

 Download Bellator 250
 


 

 

Download Bellator 250 1080p Mousasi vs Lima HDTV Star

 

BELLATOR 250: MOUSASI VS LIMA FIGHT CARD

MAIN CARD

  • Gegard Mousasi vs. Douglas Lima for vacant Middleweight title
  • Henry Corrales vs. Brandon Girtz; Featherweight 
  • Veta Arteaga vs. Desiree Yanez; Women’s Flyweight 

Download Bellator 250

PRELIMINARY CARD

  • Jake Hager vs. Brandon Calton; Heavyweight 
  • Ty Gwerder vs. Dalton Rosta
  • Bobby Voelker vs. Sabah Homasi; Welterweight 
  • Nick Newell vs. Zachary Zane; Lightweight 
  • Taylor Johnson vs. Johnny Eblen; Middleweight 
  • Adam Borics vs. Erick Sanchez; Catchweight (150 lb.) 
  • Cody Law vs. Orlando Ortega; Featherweight

Download Bellator 250

 

Complete name : Bellator.250.Mousasi.vs.Lima.1080p.HDTV.x264-Star.mkv
Format : Matroska
Format version : Version 4
File size : 7.87 GiB
Duration : 1 h 50 min
Overall bit rate : 10.2 Mb/s

Download Bellator 250

Video
ID : 1
Format : AVC
Duration : 1 h 50 min
Bit rate : 10 000 kb/s
Width : 1 920 pixels
Height : 1 080 pixels
Display ratio : 16:9
Frame rate mode : Constant
Frame rate : 29.970 FPS
Color space : YUV
Chroma sampling : 4:2:0
Bit depth : 8 bits
Scan type : Progressive
Bits/(Pixel*Frame) : 0.161
Stream size : 7.52 GiB
Forced : No
Color range : Limited
Color primaries : BT.709
Transfer characteristics : BT.709
Matrix coefficients : BT.709

 Bellator 250

Audio
ID : 2
Format : AC-3
Format/Info : Audio
Commercial name : Dolby
Codec ID : A_AC3
Duration : 1 h 50 min
Bit rate mode : Constant
Bit rate : 256 kb/s
Channel(s) : 2 channels
Channel layout : L R
Sampling rate : 48.0 kHz
Frame rate : 31.250 FPS
Compression mode : Lossy
Delay relative to video : -5 ms
Stream size : 202 MiB
Title : Stereo
Service kind : Complete Main
Default : Yes
Forced : No

WHERE IS BELLATOR 250?

Bellator 250: Mousasi and Lima will take place at the Mohegan Sun Arena in Uncasville, Conn.

It is the second time Mousasi and Lima will compete at the venue. 

 

 

Download  250 1080p Mousasi vs Lima HDTV Star

 

 

Watch online

 

 

Server 1

 

 

 

 

Download Bellator 250

 

 

 

 

Server-2

 

 

 

watch now

 

 

 

Uploaded By Site DX-TV.com

 

Download Links with premium High Speed   

 

 

dropapk.to

 

 

 

nitroflare.com

 

 

 

rapidgator.net

 

 

 

uploadgig.com

 

 

 

 

 

dx-tv.com

 

urlfree.net

Leave a Reply

Your email address will not be published. Required fields are marked *

This site uses Akismet to reduce spam. Learn how your comment data is processed.