Download Free WWE Clash of Champions 2020 1080p

Free WWE Clash of Champions 2020 1080p Full Show DX-TV

 

Download Free WWE

 

 Download Free WWE

 

Download Free WWE Clash of Champions 2020 1080p Full Show

 

 

 

 

Complete name : WWE.Clash.Of.Champions.2020.PPV.1080p.HDTV.x264-Star.mkv
Format : Matroska
Format version : Version 4
File size : 12.7 GiB
Duration : 2 h 58 min
Overall bit rate : 10.2 Mb/s
Writing library : Lavf58.29.100 

Download Free WWE

Video
ID : 1
Format : AVC
Codec ID : V_MPEG4/ISO/AVC
Duration : 2 h 58 min
Bit rate : 10 000 kb/s
Width : 1 920 pixels
Height : 1 080 pixels
Display aspect ratio : 16:9
Frame rate mode : Constant
 rate : 29.970 (30000/1001) FPS
Color space : YUV
Chroma subsampling : 4:2:0
Bit depth : 8 bits
Scan type : Progressive
Bits/(Pixel*Frame) : 0.161
Stream size : 12.2 GiB (96%)
Forced : No
Color range : Limited
Color primaries : BT.709
Transfer characteristics : BT.709
Matrix coefficients : BT.709

Download Free WWE

Audio
ID : 2
Format : AC-3
Format/Info : Audio Coding 3
Commercial name : Dolby Digital
Codec ID : A_AC3
Duration : 2 h 58 min
Bit rate mode : Constant
Bit rate : 256 kb/s
Channel(s) : 2 channels
Channel layout : L R
Sampling rate : 48.0 kHz
Frame rate : 31.250 FPS (1536 SPF)
Compression mode : Lossy
Delay relative to video : -5 ms
Stream size : 326 MiB (3%)
Title : Stereo
Service kind : Complete Main
Default : Yes
Forced : No

Download Free WWE

WWE Women’s Tag Team Championship: Shayna Baszler and Nia Jax (c) vs The Riott Squad (Ruby Riott and Liv Morgan)

Remember when Take That kept shedding members but kept calling themselves Take That all the same?

Well, despite Sarah Logan’s departure from WWE, the Riott Squad are back as a duo.

Ruby Riott and Liv Morgan are a sleek twosome, and they’re already back in the hunt for tag gold.

They’re up against a much more recent pairing in Shayna Baszler and Nia Jax, but despite the champs having less time to gel, we can’t see them losing the belts.

Baszler and Jax simply have too much power for the Riott Squad to be a real threat just yet, but don’t expect them to give up. This one will trundle on for at least another PPV.

PREDICTION: Shayna Baszler and Nia Jax

Download Free WWE

WWE Raw Women’s Championship: Asuka (c) vs Zelina Vega

Sure, it’s Clash of Champions and every match is a title match, but it still feels off that a major singles championship match has been pre-announced for the pre-show.

It’s a sign as much as anything of how the Bayley/Sasha Banks situation is the A-feud in the women’s half of the WWE, with Asuka’s fledgling Raw title reign shunted off to the side a bit.

It’s a shame, because Asuka is still one of the greatest competitors in WWE history.

She’ll surely shrug off her position on the card and look to make a statement against Zelina Vega, who has barged her way into a title shot all of a sudden.

To be frank, despite all of Zelina’s swagger we don’t see this lasting all that long. Asuka to lay down a marker and invite some stronger challenges.

PREDICTION: Asuka

 

Download Free WWE Clash of Champions 2020 1080p Full Show

 

 

 

 

Watch online

 

 

 

 

 

Server 1

 

 

 

 

watch now

 

 

 

 

Server-2

 

 

 

watch now

 

 

 

 

Server-3

 

 

 

Download Free WWE

 

 

 

 

Uploaded By Site DX-TV.com

 

 

 

 

Download Free Links with normal and high Speed [ more 15 hosts ]  

 

 

 

http://shrt10.com/YgexdbNL

 

 

 

 

Download Links with premium High Speed   

 

 

 

 

rapidgator.net

 

 

uploadgig.com

 

 

 

 

 

dx-tv.com

 

urlfree.net

Leave a Reply

Your email address will not be published. Required fields are marked *

This site uses Akismet to reduce spam. Learn how your comment data is processed.