AJPW Champion Carnival 2020 09 21 Full Show Online

Watch AJPW Champion Carnival 2020 09 21 Full Show Online DX-TV

 

AJPW Champion Carnival 2020

 

 AJPW Champion Carnival 2020

 

Champion Carnival 2020 09 21 Full Show Online

 

Name of the event: AJPW Champion Carnival 2020 – Tag 1
Date: 12.09.2020
Promotion: All Japan Pro Wrestling
Type: TV-Show
Location: Nagoya, Aichi, Japan
Arena: Nagoya International Conference Hall
Attendance: 482
Broadcast type: Live
Broadcast date: 12.09.2020
TV station/network: AJPW.tv

 

Champion Carnival Blocks & Competitors

Block A

Suwama

Jiro “ikemen” Kuroshiro

Zeus

Jake Lee

Kuma Arashi

AJPW Champion Carnival 2020

Block B

Kento Miyahara

Shuji Ishikawa

Yoshitatsu

Yuma Aoyagi

Shotaro Ashino

Smaller blocks than normal but they are loaded with some of the top talent in AJPW like current champion Suwama, the ace Kento Miyahara, newcomer Ashino and the always great Yoshitatsu.  The tournament is set to begin in September

Stay tuned to the Last Word on Pro Wrestling for more on this and other stories from around the world of wrestling, as they develop. You can always count on LWOPW to be on top of the major news in the wrestling world, as well as to provide you with analysis, previews, videos, interviews, and editorials on the wrestling world and make sure to watch AJPW’s Champion Carnival 2020 here for just 900 yen a month

 

AJPW Champion Carnival 2020

Complete name : 2020.09.21.AJPW.Champion.Carnival.2020.Tokyo.Korakuen.Hall.(Samurai.TV).mp4
Format : MPEG-4
Format profile : Base Media
Codec ID : isom
File size : 2.09 GiB
Duration : 1 h 54 min
Overall bit rate : 2 620 kb/s
Writing application : Lavf58.29.100

Champion Carnival 2020

Video
ID : 1
Format : AVC
Codec ID/Info : Advanced Video
Duration : 1 h 54 min
Bit rate : 2 415 kb/s
Width : 1 280 pixels
Height : 720 pixels
Display aspect ratio : 16:9
Frame rate mode : Constant
Frame rate : 60.000 FPS
Color space : YUV
Chroma subsampling : 4:2:0
Bit depth : 8 bits
Scan type : Progressive
Bits/(Pixel*Frame) : 0.044
Stream size : 1.93 GiB (92%)

AJPW Carnival 2020

Audio
ID : 2
Format : AAC LC
Format/Info : Advanced Audio
Codec ID : mp4a-40-2
Duration : 1 h 54 min
Bit rate mode : Constant
Bit rate : 192 kb/s
Channel(s) : 2 channels
Channel layout : L R
Sampling rate : 44.1 kHz
Frame rate : 43.066 FPS (1024 SPF)
Compression mode : Lossy
Stream size : 157 MiB (7%)
Title : simple_aac_recording
Default : Yes
Alternate group : 1

 

 

 

Champion Carnival 2020 09 21 Full Show Online

 

 

 

 

Watch online

 

 

 

 

 

Server 1

 

 

 

 

watch now

 

 

 

 

Server-2

 

 

 

AJPW Champion Carnival 2020

 

 

 

 

Server-3

 

 

 

watch now

 

 

 

 

Uploaded By Site DX-TV.com

 

 

 

 

Download Free Links with normal and high Speed [ more 15 hosts ]  

 

 

 

http://shrt10.com/Vc3hGq
http://shrt10.com/znfVSUZI
http://shrt10.com/mXyCf
http://shrt10.com/0gKNo
http://shrt10.com/X4HDgeG
http://shrt10.com/z93hXd02z
http://shrt10.com/0jX9J
http://shrt10.com/DDVrg2
http://shrt10.com/RhulK6
http://shrt10.com/fTLBq6Y
http://shrt10.com/0vjvNARO

 

 

 

 

Download Links with premium High Speed   

 

 

 

 

 

 

nitroflare.com

 

 

 

rapidgator.net

 

 

 

uploaded.net

 

 

 

uploadgig.com

 

 

 

 

 

dx-tv.com

 

urlfree.net

Leave a Reply

Your email address will not be published. Required fields are marked *

This site uses Akismet to reduce spam. Learn how your comment data is processed.