DDT Summer Vacation 2021 08 09 Online Free

DDT Summer Vacation 2021 08 09 Tour in Iwate Online Free Replay DX-TV

DDT Summer Vacation 

 DDT Summer Vacation 2021

 

 

 

Download Links with premium High Speed


Dopapk

 

 

Show Links

 

http://shrt10.com/01l45
http://shrt10.com/4b5cKa
http://shrt10.com/QpKF0p

 

[collapse]

 

 

Nitroflare

 

 

Show Links

 

http://shrt10.com/puQhY7EuW
http://shrt10.com/pMiiUtM
http://shrt10.com/J5DHm2

 

[collapse]

 

 

Rapidgator

 

 

Show Links

 

http://shrt10.com/M6eQr5L
http://shrt10.com/EOkhuOQ
http://shrt10.com/e08aLb

 

[collapse]

 

 

Uploaded

 

 

Show Links

 

http://shrt10.com/OjMt6
http://shrt10.com/3BtW2d
http://shrt10.com/SKSGtMhH

 

[collapse]

 

 

Watch online

 

Server 1

 

 

 

 

DDT Summer Vacation 

 

 

 

 

Server-2

 

 

 

 

watch now

 

 

 

|Server-3

 

 

 

 

watch now

 

 

Uploaded By Site DX-TV.com

 

 

Show Info This Show

DDT Summer Vacation 

 

Complete name : DDT.2021.08.09.Summer.Vacation.2021.Tour.in.Iwate.720p.WEB.h264-LATE.mkv
Format : Matroska
Format version : Version 4
File size : 1.77 GiB
Duration : 2 h 5 min
Overall bit rate mode : Variable
Overall bit rate : 2 016 kb/s

Video
ID : 1
Format : AVC
Format/Info : Advanced Video
Duration : 2 h 5 min
Bit rate mode : Variable
Bit rate : 1 824 kb/s
Maximum bit rate : 8 000 kb/s
Width : 1 280 pixels
Height : 720 pixels
Display aspect ratio : 16:9
Frame rate mode : Constant
Frame rate : 29.970 (30000/1001) FPS
Color space : YUV
Chroma subsampling : 4:2:0
Bit depth : 8 bits
Scan type : Progressive
Bits/(Pixel*Frame) : 0.066
Stream size : 1.60 GiB (90%)
Default : Yes
Forced : No

Audio
ID : 2
Format : AAC LC
Format/Info : Advanced Audio
Codec ID : A_AAC-2
Duration : 2 h 5 min
Bit rate : 192 kb/s
Channel(s) : 2 channels
Channel layout : L R
Sampling rate : 48.0 kHz
Frame rate : 46.875 FPS (1024 SPF)
Compression mode : Lossy
Delay relative to video : -33 ms
Stream size : 170 MiB (9%)
Language : English
Default : Yes
Forced : No

DDT Summer Vacation 

Complete name : DDT.2021.08.09.Summer.Vacation.2021.Tour.in.Iwate.1080p.WEB.h264-LATE.mkv
Format : Matroska
Format version : Version 4
File size : 4.28 GiB
Duration : 2 h 5 min
Overall bit rate mode : Variable
Overall bit rate : 4 877 kb/s

Video
ID : 1
Format : AVC
Format/Info : Advanced Video
Duration : 2 h 5 min
Bit rate mode : Variable
Bit rate : 4 685 kb/s
Maximum bit rate : 12.0 Mb/s
Width : 1 920 pixels
Height : 1 080 pixels
Display aspect ratio : 16:9
Frame rate mode : Constant
Frame rate : 29.970 (30000/1001) FPS
Color space : YUV
Chroma subsampling : 4:2:0
Bit depth : 8 bits
Scan type : Progressive
Bits/(Pixel*Frame) : 0.075
Stream size : 4.11 GiB (96%)
Default : Yes
Forced : No

DDT Summer Vacation 

Audio
ID : 2
Format : AAC LC
Format/Info : Advanced Audio
Codec ID : A_AAC-2
Duration : 2 h 5 min
Bit rate : 192 kb/s
Channel(s) : 2 channels
Channel layout : L R
Sampling rate : 48.0 kHz
Frame rate : 46.875 FPS (1024 SPF)
Compression mode : Lossy
Delay relative to video : -33 ms
Stream size : 170 MiB (4%)
Language : Japanese
Default : Yes
Forced : No

Complete name : DDT.2021.08.09.Summer.Vacation.2021.Tour.in.Iwate.WEB.h264-LATE.mkv
Format : Matroska
Format version : Version 4
File size : 977 MiB
Duration : 2 h 5 min
Overall bit rate mode : Variable
Overall bit rate : 1 087 kb/s

DDT Summer Vacation 

Video
ID : 1
Format : AVC
Format/Info : Advanced Video
Codec ID : V_MPEG4/ISO/AVC
Duration : 2 h 5 min
Bit rate mode : Variable
Bit rate : 895 kb/s
Maximum bit rate : 4 000 kb/s
Width : 960 pixels
Height : 540 pixels
Display aspect ratio : 16:9
Frame rate mode : Constant
Frame rate : 29.970 (30000/1001) FPS
Color space : YUV
Chroma subsampling : 4:2:0
Bit depth : 8 bits
Scan type : Progressive
Bits/(Pixel*Frame) : 0.058
Stream size : 805 MiB (82%)
Default : Yes
Forced : No

DDT Summer Vacation 

Audio
ID : 2
Format : AAC LC
Codec ID : A_AAC-2
Duration : 2 h 5 min
Bit rate : 192 kb/s
Channel(s) : 2 channels
Channel layout : L R
Sampling rate : 48.0 kHz
Frame rate : 46.875 FPS (1024 SPF)
Compression mode : Lossy
Delay relative to video : -33 ms
Stream size : 170 MiB (17%)
Language : Japanese
Default : Yes
Forced : No

DDT Summer Vacation 

Complete name : DDT.2021.08.09.Summer.Vacation.2021.Tour.in.Iwate.720p.WEB.h264-LATE.mkv
Format : Matroska
Format version : Version 4
File size : 1.77 GiB
Duration : 2 h 5 min
Overall bit rate mode : Variable
Overall bit rate : 2 016 kb/s

Video
ID : 1
Format : AVC
Format/Info : Advanced Video
Duration : 2 h 5 min
Bit rate mode : Variable
Bit rate : 1 824 kb/s
Maximum bit rate : 8 000 kb/s
Width : 1 280 pixels
Height : 720 pixels
Display aspect ratio : 16:9
Frame rate mode : Constant
Frame rate : 29.970 (30000/1001) FPS
Color space : YUV
Chroma subsampling : 4:2:0
Bit depth : 8 bits
Scan type : Progressive
Bits/(Pixel*Frame) : 0.066
Stream size : 1.60 GiB (90%)
Default : Yes
Forced : No

Audio
ID : 2
Format : AAC LC
Format/Info : Advanced Audio
Codec ID : A_AAC-2
Duration : 2 h 5 min
Bit rate : 192 kb/s
Channel(s) : 2 channels
Channel layout : L R
Sampling rate : 48.0 kHz
Frame rate : 46.875 FPS (1024 SPF)
Compression mode : Lossy
Delay relative to video : -33 ms
Stream size : 170 MiB (9%)
Language : English
Default : Yes
Forced : No

DDT Summer Vacation 

Complete name : DDT.2021.08.09.Summer.Vacation.2021.Tour.in.Iwate.1080p.WEB.h264-LATE.mkv
Format : Matroska
Format version : Version 4
File size : 4.28 GiB
Duration : 2 h 5 min
Overall bit rate mode : Variable
Overall bit rate : 4 877 kb/s

Video
ID : 1
Format : AVC
Format/Info : Advanced Video
Duration : 2 h 5 min
Bit rate mode : Variable
Bit rate : 4 685 kb/s
Maximum bit rate : 12.0 Mb/s
Width : 1 920 pixels
Height : 1 080 pixels
Display aspect ratio : 16:9
Frame rate mode : Constant
Frame rate : 29.970 (30000/1001) FPS
Color space : YUV
Chroma subsampling : 4:2:0
Bit depth : 8 bits
Scan type : Progressive
Bits/(Pixel*Frame) : 0.075
Stream size : 4.11 GiB (96%)
Default : Yes
Forced : No

DDT Summer Vacation 

Audio
ID : 2
Format : AAC LC
Format/Info : Advanced Audio
Codec ID : A_AAC-2
Duration : 2 h 5 min
Bit rate : 192 kb/s
Channel(s) : 2 channels
Channel layout : L R
Sampling rate : 48.0 kHz
Frame rate : 46.875 FPS (1024 SPF)
Compression mode : Lossy
Delay relative to video : -33 ms
Stream size : 170 MiB (4%)
Language : Japanese
Default : Yes
Forced : No

Complete name : DDT.2021.08.09.Summer.Vacation.2021.Tour.in.Iwate.WEB.h264-LATE.mkv
Format : Matroska
Format version : Version 4
File size : 977 MiB
Duration : 2 h 5 min
Overall bit rate mode : Variable
Overall bit rate : 1 087 kb/s

DDT Summer Vacation 

Video
ID : 1
Format : AVC
Format/Info : Advanced Video
Codec ID : V_MPEG4/ISO/AVC
Duration : 2 h 5 min
Bit rate mode : Variable
Bit rate : 895 kb/s
Maximum bit rate : 4 000 kb/s
Width : 960 pixels
Height : 540 pixels
Display aspect ratio : 16:9
Frame rate mode : Constant
Frame rate : 29.970 (30000/1001) FPS
Color space : YUV
Chroma subsampling : 4:2:0
Bit depth : 8 bits
Scan type : Progressive
Bits/(Pixel*Frame) : 0.058
Stream size : 805 MiB (82%)
Default : Yes
Forced : No

DDT Summer Vacation 

Audio
ID : 2
Format : AAC LC
Codec ID : A_AAC-2
Duration : 2 h 5 min
Bit rate : 192 kb/s
Channel(s) : 2 channels
Channel layout : L R
Sampling rate : 48.0 kHz
Frame rate : 46.875 FPS (1024 SPF)
Compression mode : Lossy
Delay relative to video : -33 ms
Stream size : 170 MiB (17%)
Language : Japanese
Default : Yes
Forced : No

DDT Summer Vacation 

Complete name : DDT.2021.08.09.Summer.Vacation.2021.Tour.in.Iwate.720p.WEB.h264-LATE.mkv
Format : Matroska
Format version : Version 4
File size : 1.77 GiB
Duration : 2 h 5 min
Overall bit rate mode : Variable
Overall bit rate : 2 016 kb/s

Video
ID : 1
Format : AVC
Format/Info : Advanced Video
Duration : 2 h 5 min
Bit rate mode : Variable
Bit rate : 1 824 kb/s
Maximum bit rate : 8 000 kb/s
Width : 1 280 pixels
Height : 720 pixels
Display aspect ratio : 16:9
Frame rate mode : Constant
Frame rate : 29.970 (30000/1001) FPS
Color space : YUV
Chroma subsampling : 4:2:0
Bit depth : 8 bits
Scan type : Progressive
Bits/(Pixel*Frame) : 0.066
Stream size : 1.60 GiB (90%)
Default : Yes
Forced : No

Audio
ID : 2
Format : AAC LC
Format/Info : Advanced Audio
Codec ID : A_AAC-2
Duration : 2 h 5 min
Bit rate : 192 kb/s
Channel(s) : 2 channels
Channel layout : L R
Sampling rate : 48.0 kHz
Frame rate : 46.875 FPS (1024 SPF)
Compression mode : Lossy
Delay relative to video : -33 ms
Stream size : 170 MiB (9%)
Language : English
Default : Yes
Forced : No

DDT Summer Vacation 

Complete name : DDT.2021.08.09.Summer.Vacation.2021.Tour.in.Iwate.1080p.WEB.h264-LATE.mkv
Format : Matroska
Format version : Version 4
File size : 4.28 GiB
Duration : 2 h 5 min
Overall bit rate mode : Variable
Overall bit rate : 4 877 kb/s

Video
ID : 1
Format : AVC
Format/Info : Advanced Video
Duration : 2 h 5 min
Bit rate mode : Variable
Bit rate : 4 685 kb/s
Maximum bit rate : 12.0 Mb/s
Width : 1 920 pixels
Height : 1 080 pixels
Display aspect ratio : 16:9
Frame rate mode : Constant
Frame rate : 29.970 (30000/1001) FPS
Color space : YUV
Chroma subsampling : 4:2:0
Bit depth : 8 bits
Scan type : Progressive
Bits/(Pixel*Frame) : 0.075
Stream size : 4.11 GiB (96%)
Default : Yes
Forced : No

DDT Summer Vacation 

Audio
ID : 2
Format : AAC LC
Format/Info : Advanced Audio
Codec ID : A_AAC-2
Duration : 2 h 5 min
Bit rate : 192 kb/s
Channel(s) : 2 channels
Channel layout : L R
Sampling rate : 48.0 kHz
Frame rate : 46.875 FPS (1024 SPF)
Compression mode : Lossy
Delay relative to video : -33 ms
Stream size : 170 MiB (4%)
Language : Japanese
Default : Yes
Forced : No

Complete name : DDT.2021.08.09.Summer.Vacation.2021.Tour.in.Iwate.WEB.h264-LATE.mkv
Format : Matroska
Format version : Version 4
File size : 977 MiB
Duration : 2 h 5 min
Overall bit rate mode : Variable
Overall bit rate : 1 087 kb/s

DDT Summer Vacation 

Video
ID : 1
Format : AVC
Format/Info : Advanced Video
Codec ID : V_MPEG4/ISO/AVC
Duration : 2 h 5 min
Bit rate mode : Variable
Bit rate : 895 kb/s
Maximum bit rate : 4 000 kb/s
Width : 960 pixels
Height : 540 pixels
Display aspect ratio : 16:9
Frame rate mode : Constant
Frame rate : 29.970 (30000/1001) FPS
Color space : YUV
Chroma subsampling : 4:2:0
Bit depth : 8 bits
Scan type : Progressive
Bits/(Pixel*Frame) : 0.058
Stream size : 805 MiB (82%)
Default : Yes
Forced : No

DDT Summer Vacation 

Audio
ID : 2
Format : AAC LC
Codec ID : A_AAC-2
Duration : 2 h 5 min
Bit rate : 192 kb/s
Channel(s) : 2 channels
Channel layout : L R
Sampling rate : 48.0 kHz
Frame rate : 46.875 FPS (1024 SPF)
Compression mode : Lossy
Delay relative to video : -33 ms
Stream size : 170 MiB (17%)
Language : Japanese
Default : Yes
Forced : No

DDT Summer Vacation 

Complete name : DDT.2021.08.09.Summer.Vacation.2021.Tour.in.Iwate.720p.WEB.h264-LATE.mkv
Format : Matroska
Format version : Version 4
File size : 1.77 GiB
Duration : 2 h 5 min
Overall bit rate mode : Variable
Overall bit rate : 2 016 kb/s

Video
ID : 1
Format : AVC
Format/Info : Advanced Video
Duration : 2 h 5 min
Bit rate mode : Variable
Bit rate : 1 824 kb/s
Maximum bit rate : 8 000 kb/s
Width : 1 280 pixels
Height : 720 pixels
Display aspect ratio : 16:9
Frame rate mode : Constant
Frame rate : 29.970 (30000/1001) FPS
Color space : YUV
Chroma subsampling : 4:2:0
Bit depth : 8 bits
Scan type : Progressive
Bits/(Pixel*Frame) : 0.066
Stream size : 1.60 GiB (90%)
Default : Yes
Forced : No

Audio
ID : 2
Format : AAC LC
Format/Info : Advanced Audio
Codec ID : A_AAC-2
Duration : 2 h 5 min
Bit rate : 192 kb/s
Channel(s) : 2 channels
Channel layout : L R
Sampling rate : 48.0 kHz
Frame rate : 46.875 FPS (1024 SPF)
Compression mode : Lossy
Delay relative to video : -33 ms
Stream size : 170 MiB (9%)
Language : English
Default : Yes
Forced : No

DDT Summer Vacation 

Complete name : DDT.2021.08.09.Summer.Vacation.2021.Tour.in.Iwate.1080p.WEB.h264-LATE.mkv
Format : Matroska
Format version : Version 4
File size : 4.28 GiB
Duration : 2 h 5 min
Overall bit rate mode : Variable
Overall bit rate : 4 877 kb/s

Video
ID : 1
Format : AVC
Format/Info : Advanced Video
Duration : 2 h 5 min
Bit rate mode : Variable
Bit rate : 4 685 kb/s
Maximum bit rate : 12.0 Mb/s
Width : 1 920 pixels
Height : 1 080 pixels
Display aspect ratio : 16:9
Frame rate mode : Constant
Frame rate : 29.970 (30000/1001) FPS
Color space : YUV
Chroma subsampling : 4:2:0
Bit depth : 8 bits
Scan type : Progressive
Bits/(Pixel*Frame) : 0.075
Stream size : 4.11 GiB (96%)
Default : Yes
Forced : No

DDT Summer Vacation 

Audio
ID : 2
Format : AAC LC
Format/Info : Advanced Audio
Codec ID : A_AAC-2
Duration : 2 h 5 min
Bit rate : 192 kb/s
Channel(s) : 2 channels
Channel layout : L R
Sampling rate : 48.0 kHz
Frame rate : 46.875 FPS (1024 SPF)
Compression mode : Lossy
Delay relative to video : -33 ms
Stream size : 170 MiB (4%)
Language : Japanese
Default : Yes
Forced : No

Complete name : DDT.2021.08.09.Summer.Vacation.2021.Tour.in.Iwate.WEB.h264-LATE.mkv
Format : Matroska
Format version : Version 4
File size : 977 MiB
Duration : 2 h 5 min
Overall bit rate mode : Variable
Overall bit rate : 1 087 kb/s

DDT Summer Vacation 

Video
ID : 1
Format : AVC
Format/Info : Advanced Video
Codec ID : V_MPEG4/ISO/AVC
Duration : 2 h 5 min
Bit rate mode : Variable
Bit rate : 895 kb/s
Maximum bit rate : 4 000 kb/s
Width : 960 pixels
Height : 540 pixels
Display aspect ratio : 16:9
Frame rate mode : Constant
Frame rate : 29.970 (30000/1001) FPS
Color space : YUV
Chroma subsampling : 4:2:0
Bit depth : 8 bits
Scan type : Progressive
Bits/(Pixel*Frame) : 0.058
Stream size : 805 MiB (82%)
Default : Yes
Forced : No

DDT Summer Vacation 

Audio
ID : 2
Format : AAC LC
Codec ID : A_AAC-2
Duration : 2 h 5 min
Bit rate : 192 kb/s
Channel(s) : 2 channels
Channel layout : L R
Sampling rate : 48.0 kHz
Frame rate : 46.875 FPS (1024 SPF)
Compression mode : Lossy
Delay relative to video : -33 ms
Stream size : 170 MiB (17%)
Language : Japanese
Default : Yes
Forced : No

DDT Summer Vacation 

Complete name : DDT.2021.08.09.Summer.Vacation.2021.Tour.in.Iwate.720p.WEB.h264-LATE.mkv
Format : Matroska
Format version : Version 4
File size : 1.77 GiB
Duration : 2 h 5 min
Overall bit rate mode : Variable
Overall bit rate : 2 016 kb/s

Video
ID : 1
Format : AVC
Format/Info : Advanced Video
Duration : 2 h 5 min
Bit rate mode : Variable
Bit rate : 1 824 kb/s
Maximum bit rate : 8 000 kb/s
Width : 1 280 pixels
Height : 720 pixels
Display aspect ratio : 16:9
Frame rate mode : Constant
Frame rate : 29.970 (30000/1001) FPS
Color space : YUV
Chroma subsampling : 4:2:0
Bit depth : 8 bits
Scan type : Progressive
Bits/(Pixel*Frame) : 0.066
Stream size : 1.60 GiB (90%)
Default : Yes
Forced : No

Audio
ID : 2
Format : AAC LC
Format/Info : Advanced Audio
Codec ID : A_AAC-2
Duration : 2 h 5 min
Bit rate : 192 kb/s
Channel(s) : 2 channels
Channel layout : L R
Sampling rate : 48.0 kHz
Frame rate : 46.875 FPS (1024 SPF)
Compression mode : Lossy
Delay relative to video : -33 ms
Stream size : 170 MiB (9%)
Language : English
Default : Yes
Forced : No

DDT Summer Vacation 

Complete name : DDT.2021.08.09.Summer.Vacation.2021.Tour.in.Iwate.1080p.WEB.h264-LATE.mkv
Format : Matroska
Format version : Version 4
File size : 4.28 GiB
Duration : 2 h 5 min
Overall bit rate mode : Variable
Overall bit rate : 4 877 kb/s

Video
ID : 1
Format : AVC
Format/Info : Advanced Video
Duration : 2 h 5 min
Bit rate mode : Variable
Bit rate : 4 685 kb/s
Maximum bit rate : 12.0 Mb/s
Width : 1 920 pixels
Height : 1 080 pixels
Display aspect ratio : 16:9
Frame rate mode : Constant
Frame rate : 29.970 (30000/1001) FPS
Color space : YUV
Chroma subsampling : 4:2:0
Bit depth : 8 bits
Scan type : Progressive
Bits/(Pixel*Frame) : 0.075
Stream size : 4.11 GiB (96%)
Default : Yes
Forced : No

DDT Summer Vacation 

Audio
ID : 2
Format : AAC LC
Format/Info : Advanced Audio
Codec ID : A_AAC-2
Duration : 2 h 5 min
Bit rate : 192 kb/s
Channel(s) : 2 channels
Channel layout : L R
Sampling rate : 48.0 kHz
Frame rate : 46.875 FPS (1024 SPF)
Compression mode : Lossy
Delay relative to video : -33 ms
Stream size : 170 MiB (4%)
Language : Japanese
Default : Yes
Forced : No

Complete name : DDT.2021.08.09.Summer.Vacation.2021.Tour.in.Iwate.WEB.h264-LATE.mkv
Format : Matroska
Format version : Version 4
File size : 977 MiB
Duration : 2 h 5 min
Overall bit rate mode : Variable
Overall bit rate : 1 087 kb/s

DDT Summer Vacation 

Video
ID : 1
Format : AVC
Format/Info : Advanced Video
Codec ID : V_MPEG4/ISO/AVC
Duration : 2 h 5 min
Bit rate mode : Variable
Bit rate : 895 kb/s
Maximum bit rate : 4 000 kb/s
Width : 960 pixels
Height : 540 pixels
Display aspect ratio : 16:9
Frame rate mode : Constant
Frame rate : 29.970 (30000/1001) FPS
Color space : YUV
Chroma subsampling : 4:2:0
Bit depth : 8 bits
Scan type : Progressive
Bits/(Pixel*Frame) : 0.058
Stream size : 805 MiB (82%)
Default : Yes
Forced : No

DDT Summer Vacation 

Audio
ID : 2
Format : AAC LC
Codec ID : A_AAC-2
Duration : 2 h 5 min
Bit rate : 192 kb/s
Channel(s) : 2 channels
Channel layout : L R
Sampling rate : 48.0 kHz
Frame rate : 46.875 FPS (1024 SPF)
Compression mode : Lossy
Delay relative to video : -33 ms
Stream size : 170 MiB (17%)
Language : Japanese
Default : Yes
Forced : No

DDT Summer Vacation 

Complete name : DDT.2021.08.09.Summer.Vacation.2021.Tour.in.Iwate.720p.WEB.h264-LATE.mkv
Format : Matroska
Format version : Version 4
File size : 1.77 GiB
Duration : 2 h 5 min
Overall bit rate mode : Variable
Overall bit rate : 2 016 kb/s

Video
ID : 1
Format : AVC
Format/Info : Advanced Video
Duration : 2 h 5 min
Bit rate mode : Variable
Bit rate : 1 824 kb/s
Maximum bit rate : 8 000 kb/s
Width : 1 280 pixels
Height : 720 pixels
Display aspect ratio : 16:9
Frame rate mode : Constant
Frame rate : 29.970 (30000/1001) FPS
Color space : YUV
Chroma subsampling : 4:2:0
Bit depth : 8 bits
Scan type : Progressive
Bits/(Pixel*Frame) : 0.066
Stream size : 1.60 GiB (90%)
Default : Yes
Forced : No

Audio
ID : 2
Format : AAC LC
Format/Info : Advanced Audio
Codec ID : A_AAC-2
Duration : 2 h 5 min
Bit rate : 192 kb/s
Channel(s) : 2 channels
Channel layout : L R
Sampling rate : 48.0 kHz
Frame rate : 46.875 FPS (1024 SPF)
Compression mode : Lossy
Delay relative to video : -33 ms
Stream size : 170 MiB (9%)
Language : English
Default : Yes
Forced : No

DDT Summer Vacation 

Complete name : DDT.2021.08.09.Summer.Vacation.2021.Tour.in.Iwate.1080p.WEB.h264-LATE.mkv
Format : Matroska
Format version : Version 4
File size : 4.28 GiB
Duration : 2 h 5 min
Overall bit rate mode : Variable
Overall bit rate : 4 877 kb/s

Video
ID : 1
Format : AVC
Format/Info : Advanced Video
Duration : 2 h 5 min
Bit rate mode : Variable
Bit rate : 4 685 kb/s
Maximum bit rate : 12.0 Mb/s
Width : 1 920 pixels
Height : 1 080 pixels
Display aspect ratio : 16:9
Frame rate mode : Constant
Frame rate : 29.970 (30000/1001) FPS
Color space : YUV
Chroma subsampling : 4:2:0
Bit depth : 8 bits
Scan type : Progressive
Bits/(Pixel*Frame) : 0.075
Stream size : 4.11 GiB (96%)
Default : Yes
Forced : No

DDT Summer Vacation 

Audio
ID : 2
Format : AAC LC
Format/Info : Advanced Audio
Codec ID : A_AAC-2
Duration : 2 h 5 min
Bit rate : 192 kb/s
Channel(s) : 2 channels
Channel layout : L R
Sampling rate : 48.0 kHz
Frame rate : 46.875 FPS (1024 SPF)
Compression mode : Lossy
Delay relative to video : -33 ms
Stream size : 170 MiB (4%)
Language : Japanese
Default : Yes
Forced : No

Complete name : DDT.2021.08.09.Summer.Vacation.2021.Tour.in.Iwate.WEB.h264-LATE.mkv
Format : Matroska
Format version : Version 4
File size : 977 MiB
Duration : 2 h 5 min
Overall bit rate mode : Variable
Overall bit rate : 1 087 kb/s

DDT Summer Vacation 

Video
ID : 1
Format : AVC
Format/Info : Advanced Video
Codec ID : V_MPEG4/ISO/AVC
Duration : 2 h 5 min
Bit rate mode : Variable
Bit rate : 895 kb/s
Maximum bit rate : 4 000 kb/s
Width : 960 pixels
Height : 540 pixels
Display aspect ratio : 16:9
Frame rate mode : Constant
Frame rate : 29.970 (30000/1001) FPS
Color space : YUV
Chroma subsampling : 4:2:0
Bit depth : 8 bits
Scan type : Progressive
Bits/(Pixel*Frame) : 0.058
Stream size : 805 MiB (82%)
Default : Yes
Forced : No

DDT Summer Vacation 

Audio
ID : 2
Format : AAC LC
Codec ID : A_AAC-2
Duration : 2 h 5 min
Bit rate : 192 kb/s
Channel(s) : 2 channels
Channel layout : L R
Sampling rate : 48.0 kHz
Frame rate : 46.875 FPS (1024 SPF)
Compression mode : Lossy
Delay relative to video : -33 ms
Stream size : 170 MiB (17%)
Language : Japanese
Default : Yes
Forced : No

DDT Summer Vacation 

Complete name : DDT.2021.08.09.Summer.Vacation.2021.Tour.in.Iwate.720p.WEB.h264-LATE.mkv
Format : Matroska
Format version : Version 4
File size : 1.77 GiB
Duration : 2 h 5 min
Overall bit rate mode : Variable
Overall bit rate : 2 016 kb/s

Video
ID : 1
Format : AVC
Format/Info : Advanced Video
Duration : 2 h 5 min
Bit rate mode : Variable
Bit rate : 1 824 kb/s
Maximum bit rate : 8 000 kb/s
Width : 1 280 pixels
Height : 720 pixels
Display aspect ratio : 16:9
Frame rate mode : Constant
Frame rate : 29.970 (30000/1001) FPS
Color space : YUV
Chroma subsampling : 4:2:0
Bit depth : 8 bits
Scan type : Progressive
Bits/(Pixel*Frame) : 0.066
Stream size : 1.60 GiB (90%)
Default : Yes
Forced : No

Audio
ID : 2
Format : AAC LC
Format/Info : Advanced Audio
Codec ID : A_AAC-2
Duration : 2 h 5 min
Bit rate : 192 kb/s
Channel(s) : 2 channels
Channel layout : L R
Sampling rate : 48.0 kHz
Frame rate : 46.875 FPS (1024 SPF)
Compression mode : Lossy
Delay relative to video : -33 ms
Stream size : 170 MiB (9%)
Language : English
Default : Yes
Forced : No

DDT Summer Vacation 

Complete name : DDT.2021.08.09.Summer.Vacation.2021.Tour.in.Iwate.1080p.WEB.h264-LATE.mkv
Format : Matroska
Format version : Version 4
File size : 4.28 GiB
Duration : 2 h 5 min
Overall bit rate mode : Variable
Overall bit rate : 4 877 kb/s

Video
ID : 1
Format : AVC
Format/Info : Advanced Video
Duration : 2 h 5 min
Bit rate mode : Variable
Bit rate : 4 685 kb/s
Maximum bit rate : 12.0 Mb/s
Width : 1 920 pixels
Height : 1 080 pixels
Display aspect ratio : 16:9
Frame rate mode : Constant
Frame rate : 29.970 (30000/1001) FPS
Color space : YUV
Chroma subsampling : 4:2:0
Bit depth : 8 bits
Scan type : Progressive
Bits/(Pixel*Frame) : 0.075
Stream size : 4.11 GiB (96%)
Default : Yes
Forced : No

DDT Summer Vacation 

Audio
ID : 2
Format : AAC LC
Format/Info : Advanced Audio
Codec ID : A_AAC-2
Duration : 2 h 5 min
Bit rate : 192 kb/s
Channel(s) : 2 channels
Channel layout : L R
Sampling rate : 48.0 kHz
Frame rate : 46.875 FPS (1024 SPF)
Compression mode : Lossy
Delay relative to video : -33 ms
Stream size : 170 MiB (4%)
Language : Japanese
Default : Yes
Forced : No

Complete name : DDT.2021.08.09.Summer.Vacation.2021.Tour.in.Iwate.WEB.h264-LATE.mkv
Format : Matroska
Format version : Version 4
File size : 977 MiB
Duration : 2 h 5 min
Overall bit rate mode : Variable
Overall bit rate : 1 087 kb/s

DDT Summer Vacation 

Video
ID : 1
Format : AVC
Format/Info : Advanced Video
Codec ID : V_MPEG4/ISO/AVC
Duration : 2 h 5 min
Bit rate mode : Variable
Bit rate : 895 kb/s
Maximum bit rate : 4 000 kb/s
Width : 960 pixels
Height : 540 pixels
Display aspect ratio : 16:9
Frame rate mode : Constant
Frame rate : 29.970 (30000/1001) FPS
Color space : YUV
Chroma subsampling : 4:2:0
Bit depth : 8 bits
Scan type : Progressive
Bits/(Pixel*Frame) : 0.058
Stream size : 805 MiB (82%)
Default : Yes
Forced : No

DDT Summer Vacation 

Audio
ID : 2
Format : AAC LC
Codec ID : A_AAC-2
Duration : 2 h 5 min
Bit rate : 192 kb/s
Channel(s) : 2 channels
Channel layout : L R
Sampling rate : 48.0 kHz
Frame rate : 46.875 FPS (1024 SPF)
Compression mode : Lossy
Delay relative to video : -33 ms
Stream size : 170 MiB (17%)
Language : Japanese
Default : Yes
Forced : No

DDT Summer Vacation 

Complete name : DDT.2021.08.09.Summer.Vacation.2021.Tour.in.Iwate.720p.WEB.h264-LATE.mkv
Format : Matroska
Format version : Version 4
File size : 1.77 GiB
Duration : 2 h 5 min
Overall bit rate mode : Variable
Overall bit rate : 2 016 kb/s

Video
ID : 1
Format : AVC
Format/Info : Advanced Video
Duration : 2 h 5 min
Bit rate mode : Variable
Bit rate : 1 824 kb/s
Maximum bit rate : 8 000 kb/s
Width : 1 280 pixels
Height : 720 pixels
Display aspect ratio : 16:9
Frame rate mode : Constant
Frame rate : 29.970 (30000/1001) FPS
Color space : YUV
Chroma subsampling : 4:2:0
Bit depth : 8 bits
Scan type : Progressive
Bits/(Pixel*Frame) : 0.066
Stream size : 1.60 GiB (90%)
Default : Yes
Forced : No

Audio
ID : 2
Format : AAC LC
Format/Info : Advanced Audio
Codec ID : A_AAC-2
Duration : 2 h 5 min
Bit rate : 192 kb/s
Channel(s) : 2 channels
Channel layout : L R
Sampling rate : 48.0 kHz
Frame rate : 46.875 FPS (1024 SPF)
Compression mode : Lossy
Delay relative to video : -33 ms
Stream size : 170 MiB (9%)
Language : English
Default : Yes
Forced : No

DDT Summer Vacation 

Complete name : DDT.2021.08.09.Summer.Vacation.2021.Tour.in.Iwate.1080p.WEB.h264-LATE.mkv
Format : Matroska
Format version : Version 4
File size : 4.28 GiB
Duration : 2 h 5 min
Overall bit rate mode : Variable
Overall bit rate : 4 877 kb/s

Video
ID : 1
Format : AVC
Format/Info : Advanced Video
Duration : 2 h 5 min
Bit rate mode : Variable
Bit rate : 4 685 kb/s
Maximum bit rate : 12.0 Mb/s
Width : 1 920 pixels
Height : 1 080 pixels
Display aspect ratio : 16:9
Frame rate mode : Constant
Frame rate : 29.970 (30000/1001) FPS
Color space : YUV
Chroma subsampling : 4:2:0
Bit depth : 8 bits
Scan type : Progressive
Bits/(Pixel*Frame) : 0.075
Stream size : 4.11 GiB (96%)
Default : Yes
Forced : No

DDT Summer Vacation 

Audio
ID : 2
Format : AAC LC
Format/Info : Advanced Audio
Codec ID : A_AAC-2
Duration : 2 h 5 min
Bit rate : 192 kb/s
Channel(s) : 2 channels
Channel layout : L R
Sampling rate : 48.0 kHz
Frame rate : 46.875 FPS (1024 SPF)
Compression mode : Lossy
Delay relative to video : -33 ms
Stream size : 170 MiB (4%)
Language : Japanese
Default : Yes
Forced : No

Complete name : DDT.2021.08.09.Summer.Vacation.2021.Tour.in.Iwate.WEB.h264-LATE.mkv
Format : Matroska
Format version : Version 4
File size : 977 MiB
Duration : 2 h 5 min
Overall bit rate mode : Variable
Overall bit rate : 1 087 kb/s

DDT Summer Vacation 

Video
ID : 1
Format : AVC
Format/Info : Advanced Video
Codec ID : V_MPEG4/ISO/AVC
Duration : 2 h 5 min
Bit rate mode : Variable
Bit rate : 895 kb/s
Maximum bit rate : 4 000 kb/s
Width : 960 pixels
Height : 540 pixels
Display aspect ratio : 16:9
Frame rate mode : Constant
Frame rate : 29.970 (30000/1001) FPS
Color space : YUV
Chroma subsampling : 4:2:0
Bit depth : 8 bits
Scan type : Progressive
Bits/(Pixel*Frame) : 0.058
Stream size : 805 MiB (82%)
Default : Yes
Forced : No

DDT Summer Vacation 

Audio
ID : 2
Format : AAC LC
Codec ID : A_AAC-2
Duration : 2 h 5 min
Bit rate : 192 kb/s
Channel(s) : 2 channels
Channel layout : L R
Sampling rate : 48.0 kHz
Frame rate : 46.875 FPS (1024 SPF)
Compression mode : Lossy
Delay relative to video : -33 ms
Stream size : 170 MiB (17%)
Language : Japanese
Default : Yes
Forced : No

DDT Summer Vacation 

 

 

[collapse]

 

 

https://dx-tv.com/

Leave a Reply

Your email address will not be published. Required fields are marked *

This site uses Akismet to reduce spam. Learn how your comment data is processed.