NOAH Departure 2021 08 06 Day 2 Japan Online Free

NOAH Departure 2021 08 06 Day 2 Japan Online Free Replay DX-TV

Contents show

NOAH Departure 2021

 NOAH Departure 2021

 

 

 

Download Links with premium High Speed


 

Dopapk

 

 

Show Links

 

http://shrt10.com/mcyOWO

 

[collapse]

 

 

Nitroflare

 

 

Show Links

 

http://shrt10.com/5riGYQ

 

[collapse]

 

 

Rapidgator

 

 

Show Links

 

http://shrt10.com/YYukt

 

[collapse]

 

 

Uploaded

 

 

Show Links

 

http://shrt10.com/eooaV

 

[collapse]

 

 

Watch online

 

Server 1

 

 

 

 

NOAH Departure 2021

 

 

 

 

Server-2

 

 

 

 

watch now

 

 

 

|Server-3

 

 

 

 

watch now

 

 

Uploaded By Site DX-TV.com

 

 

Show Info This Show

NOAH Departure 2021

 

Complete name : NOAH.2021.08.06.Departure.2021.Day.2.JAPANESE.720p.WEB.h264-LATE.mkv
Format : Matroska
Format version : Version 4
File size : 2.30 GiB
Duration : 2 h 44 min
Overall bit rate : 1 999 kb/s

Video
ID : 1
Format : AVC
Format/Info : Advanced Video
Codec ID : V_MPEG4/ISO/AVC
Duration : 2 h 44 min
Bit rate : 1 904 kb/s
Width : 1 280 pixels
Height : 720 pixels
Display aspect ratio : 16:9
Frame rate mode : Constant
Frame rate : 30.000 FPS
Color space : YUV
Chroma subsampling : 4:2:0
Bit depth : 8 bits
Scan type : Progressive
Bits/(Pixel*Frame) : 0.069
Stream size : 2.19 GiB (95%)
Forced : No

NOAH Departure 2021

Audio
ID : 2
Format : AAC LC
Format/Info : Advanced Audio
Codec ID : A_AAC-2
Duration : 2 h 44 min
Bit rate : 93.6 kb/s
Channel(s) : 2 channels
Channel layout : L R
Sampling rate : 44.1 kHz
Frame rate : 43.066 FPS (1024 SPF)
Compression mode : Lossy
Delay relative to video : -23 ms
Stream size : 110 MiB (5%)
Default : Yes
Forced : No

NOAH Departure 2021

 

The changes occurred because YO-HEY tested positive for COVID-19. In addition to YO-HEY, Atsushi Kotoge, Daisuke Harada, Eita, Junta Miyawaki and NOSAWA Rongai and referee Shu Nishinaga missed today’s program for having been in direct contact with YO-HEY.

Kotaro Suzuki challenged HAYATA for the GHC Jr. Weight Championship after the fourth match. The title fight will be officially held at NOAH’s show on September 3 at Yokohama Radiant Hall.

NOAH Departure 2021

Sugiura Army (Takashi Sugiura and Kazushi Sakuraba) defeated The M Alliance (Masato Tanaka and Masaaki Mochizuki). This combat was the prelude to the fight of September 15 where Sugiura and Tanaka will collide. In that duel the GHC Full Weight Championship and the Zero1 World Full Weight Championship will be put into play and where the winner will be double monarch.

NOAH Departure 2021

On the stellar turn, The M Alliance (Keiji Muto, Masakatsu Funaki, and Naomichi Marufuji) outscored Kongo (Katsuhiko Nakajima, Kenou, and Manabu Soya).

 

The complete results are:

NOAH «DEPARTURE 2021 DAY 2», 06.08.2021 
Tokyo Korakuen Hall
Attendance: 485 viewers

NOAH Departure 2021

1. Hajime Ohara beat Kai Fujimura (7:21) with the Tresfleur.
2. Kotaro Suzuki and Kinya Okada defeated Yoshinari Ogawa and Yasutaka Yano (13:02) with a Suzuki Tiger Driver over Yano.
3. Kaito Kiyomiya, Manabu Soya and Daiki Inaba defeated King Tani, Mohammed Yone and Akitoshi Saito (14:31) with Inaba’s Gokusori Manjigatame over Yone.
4. HAYATA, Seiki Yoshioka and Yuya Susumu defeated Haoh, Tadasuke and Aleja (13:24) with Yoshioka’s Crash Driver on Tadasuke.
5. Takashi Sugiura and Kazushi Sakuraba defeated Masato Tanaka and Masaaki Mochizuki (15:34) by arbitration arrest (Sugiura submitted Mochizuki with a Front Neck Lock).
6. Naomichi Marufuji, Keiji Muto and Masakatsu Funaki defeated Kenoh, Katsuhiko Nakajima and Manabu Soya (19:17) with Muto’s Shining Wizard on Soya.

NOAH Departure 2021

Complete name : NOAH.2021.08.06.Departure.2021.Day.2.JAPANESE.720p.WEB.h264-LATE.mkv
Format : Matroska
Format version : Version 4
File size : 2.30 GiB
Duration : 2 h 44 min
Overall bit rate : 1 999 kb/s

Video
ID : 1
Format : AVC
Format/Info : Advanced Video
Codec ID : V_MPEG4/ISO/AVC
Duration : 2 h 44 min
Bit rate : 1 904 kb/s
Width : 1 280 pixels
Height : 720 pixels
Display aspect ratio : 16:9
Frame rate mode : Constant
Frame rate : 30.000 FPS
Color space : YUV
Chroma subsampling : 4:2:0
Bit depth : 8 bits
Scan type : Progressive
Bits/(Pixel*Frame) : 0.069
Stream size : 2.19 GiB (95%)
Forced : No

NOAH Departure 2021

Audio
ID : 2
Format : AAC LC
Format/Info : Advanced Audio
Codec ID : A_AAC-2
Duration : 2 h 44 min
Bit rate : 93.6 kb/s
Channel(s) : 2 channels
Channel layout : L R
Sampling rate : 44.1 kHz
Frame rate : 43.066 FPS (1024 SPF)
Compression mode : Lossy
Delay relative to video : -23 ms
Stream size : 110 MiB (5%)
Default : Yes
Forced : No

NOAH Departure 2021

 

The changes occurred because YO-HEY tested positive for COVID-19. In addition to YO-HEY, Atsushi Kotoge, Daisuke Harada, Eita, Junta Miyawaki and NOSAWA Rongai and referee Shu Nishinaga missed today’s program for having been in direct contact with YO-HEY.

Kotaro Suzuki challenged HAYATA for the GHC Jr. Weight Championship after the fourth match. The title fight will be officially held at NOAH’s show on September 3 at Yokohama Radiant Hall.

NOAH Departure 2021

Sugiura Army (Takashi Sugiura and Kazushi Sakuraba) defeated The M Alliance (Masato Tanaka and Masaaki Mochizuki). This combat was the prelude to the fight of September 15 where Sugiura and Tanaka will collide. In that duel the GHC Full Weight Championship and the Zero1 World Full Weight Championship will be put into play and where the winner will be double monarch.

NOAH Departure 2021

On the stellar turn, The M Alliance (Keiji Muto, Masakatsu Funaki, and Naomichi Marufuji) outscored Kongo (Katsuhiko Nakajima, Kenou, and Manabu Soya).

 

The complete results are:

NOAH «DEPARTURE 2021 DAY 2», 06.08.2021 
Tokyo Korakuen Hall
Attendance: 485 viewers

NOAH Departure 2021

1. Hajime Ohara beat Kai Fujimura (7:21) with the Tresfleur.
2. Kotaro Suzuki and Kinya Okada defeated Yoshinari Ogawa and Yasutaka Yano (13:02) with a Suzuki Tiger Driver over Yano.
3. Kaito Kiyomiya, Manabu Soya and Daiki Inaba defeated King Tani, Mohammed Yone and Akitoshi Saito (14:31) with Inaba’s Gokusori Manjigatame over Yone.
4. HAYATA, Seiki Yoshioka and Yuya Susumu defeated Haoh, Tadasuke and Aleja (13:24) with Yoshioka’s Crash Driver on Tadasuke.
5. Takashi Sugiura and Kazushi Sakuraba defeated Masato Tanaka and Masaaki Mochizuki (15:34) by arbitration arrest (Sugiura submitted Mochizuki with a Front Neck Lock).
6. Naomichi Marufuji, Keiji Muto and Masakatsu Funaki defeated Kenoh, Katsuhiko Nakajima and Manabu Soya (19:17) with Muto’s Shining Wizard on Soya.

NOAH Departure 2021

Complete name : NOAH.2021.08.06.Departure.2021.Day.2.JAPANESE.720p.WEB.h264-LATE.mkv
Format : Matroska
Format version : Version 4
File size : 2.30 GiB
Duration : 2 h 44 min
Overall bit rate : 1 999 kb/s

Video
ID : 1
Format : AVC
Format/Info : Advanced Video
Codec ID : V_MPEG4/ISO/AVC
Duration : 2 h 44 min
Bit rate : 1 904 kb/s
Width : 1 280 pixels
Height : 720 pixels
Display aspect ratio : 16:9
Frame rate mode : Constant
Frame rate : 30.000 FPS
Color space : YUV
Chroma subsampling : 4:2:0
Bit depth : 8 bits
Scan type : Progressive
Bits/(Pixel*Frame) : 0.069
Stream size : 2.19 GiB (95%)
Forced : No

NOAH Departure 2021

Audio
ID : 2
Format : AAC LC
Format/Info : Advanced Audio
Codec ID : A_AAC-2
Duration : 2 h 44 min
Bit rate : 93.6 kb/s
Channel(s) : 2 channels
Channel layout : L R
Sampling rate : 44.1 kHz
Frame rate : 43.066 FPS (1024 SPF)
Compression mode : Lossy
Delay relative to video : -23 ms
Stream size : 110 MiB (5%)
Default : Yes
Forced : No

NOAH Departure 2021

 

The changes occurred because YO-HEY tested positive for COVID-19. In addition to YO-HEY, Atsushi Kotoge, Daisuke Harada, Eita, Junta Miyawaki and NOSAWA Rongai and referee Shu Nishinaga missed today’s program for having been in direct contact with YO-HEY.

Kotaro Suzuki challenged HAYATA for the GHC Jr. Weight Championship after the fourth match. The title fight will be officially held at NOAH’s show on September 3 at Yokohama Radiant Hall.

NOAH Departure 2021

Sugiura Army (Takashi Sugiura and Kazushi Sakuraba) defeated The M Alliance (Masato Tanaka and Masaaki Mochizuki). This combat was the prelude to the fight of September 15 where Sugiura and Tanaka will collide. In that duel the GHC Full Weight Championship and the Zero1 World Full Weight Championship will be put into play and where the winner will be double monarch.

NOAH Departure 2021

On the stellar turn, The M Alliance (Keiji Muto, Masakatsu Funaki, and Naomichi Marufuji) outscored Kongo (Katsuhiko Nakajima, Kenou, and Manabu Soya).

 

The complete results are:

NOAH «DEPARTURE 2021 DAY 2», 06.08.2021 
Tokyo Korakuen Hall
Attendance: 485 viewers

NOAH Departure 2021

1. Hajime Ohara beat Kai Fujimura (7:21) with the Tresfleur.
2. Kotaro Suzuki and Kinya Okada defeated Yoshinari Ogawa and Yasutaka Yano (13:02) with a Suzuki Tiger Driver over Yano.
3. Kaito Kiyomiya, Manabu Soya and Daiki Inaba defeated King Tani, Mohammed Yone and Akitoshi Saito (14:31) with Inaba’s Gokusori Manjigatame over Yone.
4. HAYATA, Seiki Yoshioka and Yuya Susumu defeated Haoh, Tadasuke and Aleja (13:24) with Yoshioka’s Crash Driver on Tadasuke.
5. Takashi Sugiura and Kazushi Sakuraba defeated Masato Tanaka and Masaaki Mochizuki (15:34) by arbitration arrest (Sugiura submitted Mochizuki with a Front Neck Lock).
6. Naomichi Marufuji, Keiji Muto and Masakatsu Funaki defeated Kenoh, Katsuhiko Nakajima and Manabu Soya (19:17) with Muto’s Shining Wizard on Soya.

NOAH Departure 2021

Complete name : NOAH.2021.08.06.Departure.2021.Day.2.JAPANESE.720p.WEB.h264-LATE.mkv
Format : Matroska
Format version : Version 4
File size : 2.30 GiB
Duration : 2 h 44 min
Overall bit rate : 1 999 kb/s

Video
ID : 1
Format : AVC
Format/Info : Advanced Video
Codec ID : V_MPEG4/ISO/AVC
Duration : 2 h 44 min
Bit rate : 1 904 kb/s
Width : 1 280 pixels
Height : 720 pixels
Display aspect ratio : 16:9
Frame rate mode : Constant
Frame rate : 30.000 FPS
Color space : YUV
Chroma subsampling : 4:2:0
Bit depth : 8 bits
Scan type : Progressive
Bits/(Pixel*Frame) : 0.069
Stream size : 2.19 GiB (95%)
Forced : No

NOAH Departure 2021

Audio
ID : 2
Format : AAC LC
Format/Info : Advanced Audio
Codec ID : A_AAC-2
Duration : 2 h 44 min
Bit rate : 93.6 kb/s
Channel(s) : 2 channels
Channel layout : L R
Sampling rate : 44.1 kHz
Frame rate : 43.066 FPS (1024 SPF)
Compression mode : Lossy
Delay relative to video : -23 ms
Stream size : 110 MiB (5%)
Default : Yes
Forced : No

NOAH Departure 2021

 

The changes occurred because YO-HEY tested positive for COVID-19. In addition to YO-HEY, Atsushi Kotoge, Daisuke Harada, Eita, Junta Miyawaki and NOSAWA Rongai and referee Shu Nishinaga missed today’s program for having been in direct contact with YO-HEY.

Kotaro Suzuki challenged HAYATA for the GHC Jr. Weight Championship after the fourth match. The title fight will be officially held at NOAH’s show on September 3 at Yokohama Radiant Hall.

NOAH Departure 2021

Sugiura Army (Takashi Sugiura and Kazushi Sakuraba) defeated The M Alliance (Masato Tanaka and Masaaki Mochizuki). This combat was the prelude to the fight of September 15 where Sugiura and Tanaka will collide. In that duel the GHC Full Weight Championship and the Zero1 World Full Weight Championship will be put into play and where the winner will be double monarch.

NOAH Departure 2021

On the stellar turn, The M Alliance (Keiji Muto, Masakatsu Funaki, and Naomichi Marufuji) outscored Kongo (Katsuhiko Nakajima, Kenou, and Manabu Soya).

 

The complete results are:

NOAH «DEPARTURE 2021 DAY 2», 06.08.2021 
Tokyo Korakuen Hall
Attendance: 485 viewers

NOAH Departure 2021

1. Hajime Ohara beat Kai Fujimura (7:21) with the Tresfleur.
2. Kotaro Suzuki and Kinya Okada defeated Yoshinari Ogawa and Yasutaka Yano (13:02) with a Suzuki Tiger Driver over Yano.
3. Kaito Kiyomiya, Manabu Soya and Daiki Inaba defeated King Tani, Mohammed Yone and Akitoshi Saito (14:31) with Inaba’s Gokusori Manjigatame over Yone.
4. HAYATA, Seiki Yoshioka and Yuya Susumu defeated Haoh, Tadasuke and Aleja (13:24) with Yoshioka’s Crash Driver on Tadasuke.
5. Takashi Sugiura and Kazushi Sakuraba defeated Masato Tanaka and Masaaki Mochizuki (15:34) by arbitration arrest (Sugiura submitted Mochizuki with a Front Neck Lock).
6. Naomichi Marufuji, Keiji Muto and Masakatsu Funaki defeated Kenoh, Katsuhiko Nakajima and Manabu Soya (19:17) with Muto’s Shining Wizard on Soya.

NOAH Departure 2021

Complete name : NOAH.2021.08.06.Departure.2021.Day.2.JAPANESE.720p.WEB.h264-LATE.mkv
Format : Matroska
Format version : Version 4
File size : 2.30 GiB
Duration : 2 h 44 min
Overall bit rate : 1 999 kb/s

Video
ID : 1
Format : AVC
Format/Info : Advanced Video
Codec ID : V_MPEG4/ISO/AVC
Duration : 2 h 44 min
Bit rate : 1 904 kb/s
Width : 1 280 pixels
Height : 720 pixels
Display aspect ratio : 16:9
Frame rate mode : Constant
Frame rate : 30.000 FPS
Color space : YUV
Chroma subsampling : 4:2:0
Bit depth : 8 bits
Scan type : Progressive
Bits/(Pixel*Frame) : 0.069
Stream size : 2.19 GiB (95%)
Forced : No

NOAH Departure 2021

Audio
ID : 2
Format : AAC LC
Format/Info : Advanced Audio
Codec ID : A_AAC-2
Duration : 2 h 44 min
Bit rate : 93.6 kb/s
Channel(s) : 2 channels
Channel layout : L R
Sampling rate : 44.1 kHz
Frame rate : 43.066 FPS (1024 SPF)
Compression mode : Lossy
Delay relative to video : -23 ms
Stream size : 110 MiB (5%)
Default : Yes
Forced : No

NOAH Departure 2021

 

The changes occurred because YO-HEY tested positive for COVID-19. In addition to YO-HEY, Atsushi Kotoge, Daisuke Harada, Eita, Junta Miyawaki and NOSAWA Rongai and referee Shu Nishinaga missed today’s program for having been in direct contact with YO-HEY.

Kotaro Suzuki challenged HAYATA for the GHC Jr. Weight Championship after the fourth match. The title fight will be officially held at NOAH’s show on September 3 at Yokohama Radiant Hall.

NOAH Departure 2021

Sugiura Army (Takashi Sugiura and Kazushi Sakuraba) defeated The M Alliance (Masato Tanaka and Masaaki Mochizuki). This combat was the prelude to the fight of September 15 where Sugiura and Tanaka will collide. In that duel the GHC Full Weight Championship and the Zero1 World Full Weight Championship will be put into play and where the winner will be double monarch.

NOAH Departure 2021

On the stellar turn, The M Alliance (Keiji Muto, Masakatsu Funaki, and Naomichi Marufuji) outscored Kongo (Katsuhiko Nakajima, Kenou, and Manabu Soya).

 

The complete results are:

NOAH «DEPARTURE 2021 DAY 2», 06.08.2021 
Tokyo Korakuen Hall
Attendance: 485 viewers

NOAH Departure 2021

1. Hajime Ohara beat Kai Fujimura (7:21) with the Tresfleur.
2. Kotaro Suzuki and Kinya Okada defeated Yoshinari Ogawa and Yasutaka Yano (13:02) with a Suzuki Tiger Driver over Yano.
3. Kaito Kiyomiya, Manabu Soya and Daiki Inaba defeated King Tani, Mohammed Yone and Akitoshi Saito (14:31) with Inaba’s Gokusori Manjigatame over Yone.
4. HAYATA, Seiki Yoshioka and Yuya Susumu defeated Haoh, Tadasuke and Aleja (13:24) with Yoshioka’s Crash Driver on Tadasuke.
5. Takashi Sugiura and Kazushi Sakuraba defeated Masato Tanaka and Masaaki Mochizuki (15:34) by arbitration arrest (Sugiura submitted Mochizuki with a Front Neck Lock).
6. Naomichi Marufuji, Keiji Muto and Masakatsu Funaki defeated Kenoh, Katsuhiko Nakajima and Manabu Soya (19:17) with Muto’s Shining Wizard on Soya.

NOAH Departure 2021

Complete name : NOAH.2021.08.06.Departure.2021.Day.2.JAPANESE.720p.WEB.h264-LATE.mkv
Format : Matroska
Format version : Version 4
File size : 2.30 GiB
Duration : 2 h 44 min
Overall bit rate : 1 999 kb/s

Video
ID : 1
Format : AVC
Format/Info : Advanced Video
Codec ID : V_MPEG4/ISO/AVC
Duration : 2 h 44 min
Bit rate : 1 904 kb/s
Width : 1 280 pixels
Height : 720 pixels
Display aspect ratio : 16:9
Frame rate mode : Constant
Frame rate : 30.000 FPS
Color space : YUV
Chroma subsampling : 4:2:0
Bit depth : 8 bits
Scan type : Progressive
Bits/(Pixel*Frame) : 0.069
Stream size : 2.19 GiB (95%)
Forced : No

NOAH Departure 2021

Audio
ID : 2
Format : AAC LC
Format/Info : Advanced Audio
Codec ID : A_AAC-2
Duration : 2 h 44 min
Bit rate : 93.6 kb/s
Channel(s) : 2 channels
Channel layout : L R
Sampling rate : 44.1 kHz
Frame rate : 43.066 FPS (1024 SPF)
Compression mode : Lossy
Delay relative to video : -23 ms
Stream size : 110 MiB (5%)
Default : Yes
Forced : No

NOAH Departure 2021

 

The changes occurred because YO-HEY tested positive for COVID-19. In addition to YO-HEY, Atsushi Kotoge, Daisuke Harada, Eita, Junta Miyawaki and NOSAWA Rongai and referee Shu Nishinaga missed today’s program for having been in direct contact with YO-HEY.

Kotaro Suzuki challenged HAYATA for the GHC Jr. Weight Championship after the fourth match. The title fight will be officially held at NOAH’s show on September 3 at Yokohama Radiant Hall.

NOAH Departure 2021

Sugiura Army (Takashi Sugiura and Kazushi Sakuraba) defeated The M Alliance (Masato Tanaka and Masaaki Mochizuki). This combat was the prelude to the fight of September 15 where Sugiura and Tanaka will collide. In that duel the GHC Full Weight Championship and the Zero1 World Full Weight Championship will be put into play and where the winner will be double monarch.

NOAH Departure 2021

On the stellar turn, The M Alliance (Keiji Muto, Masakatsu Funaki, and Naomichi Marufuji) outscored Kongo (Katsuhiko Nakajima, Kenou, and Manabu Soya).

 

The complete results are:

NOAH «DEPARTURE 2021 DAY 2», 06.08.2021 
Tokyo Korakuen Hall
Attendance: 485 viewers

NOAH Departure 2021

1. Hajime Ohara beat Kai Fujimura (7:21) with the Tresfleur.
2. Kotaro Suzuki and Kinya Okada defeated Yoshinari Ogawa and Yasutaka Yano (13:02) with a Suzuki Tiger Driver over Yano.
3. Kaito Kiyomiya, Manabu Soya and Daiki Inaba defeated King Tani, Mohammed Yone and Akitoshi Saito (14:31) with Inaba’s Gokusori Manjigatame over Yone.
4. HAYATA, Seiki Yoshioka and Yuya Susumu defeated Haoh, Tadasuke and Aleja (13:24) with Yoshioka’s Crash Driver on Tadasuke.
5. Takashi Sugiura and Kazushi Sakuraba defeated Masato Tanaka and Masaaki Mochizuki (15:34) by arbitration arrest (Sugiura submitted Mochizuki with a Front Neck Lock).
6. Naomichi Marufuji, Keiji Muto and Masakatsu Funaki defeated Kenoh, Katsuhiko Nakajima and Manabu Soya (19:17) with Muto’s Shining Wizard on Soya.

NOAH Departure 2021

Complete name : NOAH.2021.08.06.Departure.2021.Day.2.JAPANESE.720p.WEB.h264-LATE.mkv
Format : Matroska
Format version : Version 4
File size : 2.30 GiB
Duration : 2 h 44 min
Overall bit rate : 1 999 kb/s

Video
ID : 1
Format : AVC
Format/Info : Advanced Video
Codec ID : V_MPEG4/ISO/AVC
Duration : 2 h 44 min
Bit rate : 1 904 kb/s
Width : 1 280 pixels
Height : 720 pixels
Display aspect ratio : 16:9
Frame rate mode : Constant
Frame rate : 30.000 FPS
Color space : YUV
Chroma subsampling : 4:2:0
Bit depth : 8 bits
Scan type : Progressive
Bits/(Pixel*Frame) : 0.069
Stream size : 2.19 GiB (95%)
Forced : No

NOAH Departure 2021

Audio
ID : 2
Format : AAC LC
Format/Info : Advanced Audio
Codec ID : A_AAC-2
Duration : 2 h 44 min
Bit rate : 93.6 kb/s
Channel(s) : 2 channels
Channel layout : L R
Sampling rate : 44.1 kHz
Frame rate : 43.066 FPS (1024 SPF)
Compression mode : Lossy
Delay relative to video : -23 ms
Stream size : 110 MiB (5%)
Default : Yes
Forced : No

NOAH Departure 2021

 

The changes occurred because YO-HEY tested positive for COVID-19. In addition to YO-HEY, Atsushi Kotoge, Daisuke Harada, Eita, Junta Miyawaki and NOSAWA Rongai and referee Shu Nishinaga missed today’s program for having been in direct contact with YO-HEY.

Kotaro Suzuki challenged HAYATA for the GHC Jr. Weight Championship after the fourth match. The title fight will be officially held at NOAH’s show on September 3 at Yokohama Radiant Hall.

NOAH Departure 2021

Sugiura Army (Takashi Sugiura and Kazushi Sakuraba) defeated The M Alliance (Masato Tanaka and Masaaki Mochizuki). This combat was the prelude to the fight of September 15 where Sugiura and Tanaka will collide. In that duel the GHC Full Weight Championship and the Zero1 World Full Weight Championship will be put into play and where the winner will be double monarch.

NOAH Departure 2021

On the stellar turn, The M Alliance (Keiji Muto, Masakatsu Funaki, and Naomichi Marufuji) outscored Kongo (Katsuhiko Nakajima, Kenou, and Manabu Soya).

 

The complete results are:

NOAH «DEPARTURE 2021 DAY 2», 06.08.2021 
Tokyo Korakuen Hall
Attendance: 485 viewers

NOAH Departure 2021

1. Hajime Ohara beat Kai Fujimura (7:21) with the Tresfleur.
2. Kotaro Suzuki and Kinya Okada defeated Yoshinari Ogawa and Yasutaka Yano (13:02) with a Suzuki Tiger Driver over Yano.
3. Kaito Kiyomiya, Manabu Soya and Daiki Inaba defeated King Tani, Mohammed Yone and Akitoshi Saito (14:31) with Inaba’s Gokusori Manjigatame over Yone.
4. HAYATA, Seiki Yoshioka and Yuya Susumu defeated Haoh, Tadasuke and Aleja (13:24) with Yoshioka’s Crash Driver on Tadasuke.
5. Takashi Sugiura and Kazushi Sakuraba defeated Masato Tanaka and Masaaki Mochizuki (15:34) by arbitration arrest (Sugiura submitted Mochizuki with a Front Neck Lock).
6. Naomichi Marufuji, Keiji Muto and Masakatsu Funaki defeated Kenoh, Katsuhiko Nakajima and Manabu Soya (19:17) with Muto’s Shining Wizard on Soya.

NOAH Departure 2021

Complete name : NOAH.2021.08.06.Departure.2021.Day.2.JAPANESE.720p.WEB.h264-LATE.mkv
Format : Matroska
Format version : Version 4
File size : 2.30 GiB
Duration : 2 h 44 min
Overall bit rate : 1 999 kb/s

Video
ID : 1
Format : AVC
Format/Info : Advanced Video
Codec ID : V_MPEG4/ISO/AVC
Duration : 2 h 44 min
Bit rate : 1 904 kb/s
Width : 1 280 pixels
Height : 720 pixels
Display aspect ratio : 16:9
Frame rate mode : Constant
Frame rate : 30.000 FPS
Color space : YUV
Chroma subsampling : 4:2:0
Bit depth : 8 bits
Scan type : Progressive
Bits/(Pixel*Frame) : 0.069
Stream size : 2.19 GiB (95%)
Forced : No

NOAH Departure 2021

Audio
ID : 2
Format : AAC LC
Format/Info : Advanced Audio
Codec ID : A_AAC-2
Duration : 2 h 44 min
Bit rate : 93.6 kb/s
Channel(s) : 2 channels
Channel layout : L R
Sampling rate : 44.1 kHz
Frame rate : 43.066 FPS (1024 SPF)
Compression mode : Lossy
Delay relative to video : -23 ms
Stream size : 110 MiB (5%)
Default : Yes
Forced : No

NOAH Departure 2021

 

The changes occurred because YO-HEY tested positive for COVID-19. In addition to YO-HEY, Atsushi Kotoge, Daisuke Harada, Eita, Junta Miyawaki and NOSAWA Rongai and referee Shu Nishinaga missed today’s program for having been in direct contact with YO-HEY.

Kotaro Suzuki challenged HAYATA for the GHC Jr. Weight Championship after the fourth match. The title fight will be officially held at NOAH’s show on September 3 at Yokohama Radiant Hall.

NOAH Departure 2021

Sugiura Army (Takashi Sugiura and Kazushi Sakuraba) defeated The M Alliance (Masato Tanaka and Masaaki Mochizuki). This combat was the prelude to the fight of September 15 where Sugiura and Tanaka will collide. In that duel the GHC Full Weight Championship and the Zero1 World Full Weight Championship will be put into play and where the winner will be double monarch.

NOAH Departure 2021

On the stellar turn, The M Alliance (Keiji Muto, Masakatsu Funaki, and Naomichi Marufuji) outscored Kongo (Katsuhiko Nakajima, Kenou, and Manabu Soya).

 

The complete results are:

NOAH «DEPARTURE 2021 DAY 2», 06.08.2021 
Tokyo Korakuen Hall
Attendance: 485 viewers

NOAH Departure 2021

1. Hajime Ohara beat Kai Fujimura (7:21) with the Tresfleur.
2. Kotaro Suzuki and Kinya Okada defeated Yoshinari Ogawa and Yasutaka Yano (13:02) with a Suzuki Tiger Driver over Yano.
3. Kaito Kiyomiya, Manabu Soya and Daiki Inaba defeated King Tani, Mohammed Yone and Akitoshi Saito (14:31) with Inaba’s Gokusori Manjigatame over Yone.
4. HAYATA, Seiki Yoshioka and Yuya Susumu defeated Haoh, Tadasuke and Aleja (13:24) with Yoshioka’s Crash Driver on Tadasuke.
5. Takashi Sugiura and Kazushi Sakuraba defeated Masato Tanaka and Masaaki Mochizuki (15:34) by arbitration arrest (Sugiura submitted Mochizuki with a Front Neck Lock).
6. Naomichi Marufuji, Keiji Muto and Masakatsu Funaki defeated Kenoh, Katsuhiko Nakajima and Manabu Soya (19:17) with Muto’s Shining Wizard on Soya.

NOAH Departure 2021

 

[collapse]

 

 

https://dx-tv.com/

You May Also Like

Leave a Reply

Your email address will not be published. Required fields are marked *

This site uses Akismet to reduce spam. Learn how your comment data is processed.