DDT Muscle 3 2020 09 21 Free Full Show

Watch DDT Muscle 3 2020 09 21 Free Full Show DX-TV

 

DDT Full Show

 

 DDT Full Show
 


 

 

DDT Muscle 3 2020 09 21 Free Full Show

 

 

TOKYO JOSHI PRO “LIVE WITH YOUR TIME”, 21/09/2020
Tokyo Shinagawa The Grand Hall

1. 3 Way Match: Hyper Misao Vs Raku Vs Himawari Unagi
2. Pom Harajuku Vs Moka Miyamoto
3. Miyu Yamashita Vs Sena Shiori  DDT Full Show
4. Nodoka Tenma, Yuki Aino & Haruna Neko Vs Yuki Kamifuku, Mina Shirakawa & Mahiro Kiryu
5. Special Tag Match: Yuka Sakazaki & Shoko Nakajima Vs Mizuki & Maki Itoh
6. Natsumi Maki Vs Hikari Noa
7. Princess Tag Team Titles: Rika Tatsumi & Miu Watanabe (c) Vs Mirai Maiumi & Suzume

Two classic Tokyo Joshi Pro teams reunite for a special tag match.

 The Miraclians take on the original Itoh Respect Army!

DDT Full Show

MUSCLE “HIRAGANA MUSCLE 3 ~FINISH RANPATSU~ OPEN TO THE PUBLIC”, 21/09/2020
Tokyo Shinagawa The Grand Hall 

This is sort of going to be a dress rehearsal for Muscle’s December show.

Let’s see what progress has been made with the script, the costumes, the music, etc.

DDT “THIS WILL BE OUR THIRD NARIMASU EVENT! 2020”, 03/10/2020
Tokyo Narimasu Act Hall

DDT Full Show

 
Complete name : DDT.2020.09.21.Muscle.3.WEB.h264-LATE.mkv
Format : Matroska
Format version : Version 4
File size : 2.41 GiB
Duration : 3 h 6 min
Overall bit rate : 1 855 kb/s

DDT Full Show

Video
ID : 1
Format : AVC
Format/Info : Advanced
Duration : 3 h 6 min
Bit rate : 1 757 kb/s
Width : 960 pixels
Height : 540 pixels
Display aspect ratio : 16:9
rate mode : Constant
Frame rate : 30.000 FPS
Color space : YUV
Chroma subsampling : 4:2:0
Bit depth : 8 bits
Scan type : Progressive
Bits/(Pixel*Frame) : 0.113
Stream size : 2.28 GiB (95%)
Default : Yes
Forced : No
Color range : Limited
Color primaries : BT.601 PAL
Transfer characteristics : BT.601

DDT Full Show

Audio
ID : 2
Format : AAC LC
Format/Info : Advanced Audio
Codec ID : A_AAC-2
Duration : 3 h 6 min
Bit rate : 96.0 kb/s
Channel(s) : 2 channels
Channel layout : L R
Sampling rate : 44.1 kHz
Frame rate : 43.066 FPS (1024 SPF)
Compression mode : Lossy
Stream size : 128 MiB (5%)
Language : English
Default : Yes
Forced : No

 

DDT Muscle 3 2020 09 21 Free Full Show

 

 

 

 

Watch online

 

 

 

 

 

Server 1

 

 

 

 

watch now

 

 

 

 

Server-2

 

 

 

NOAH Victory 2020

 

 

 

 

Server-3

 

 

 

DDT Full Show

 

 

 

 

Uploaded By Site DX-TV.com

 

 

 

 

Download Free Links with normal and high Speed [ more 15 hosts ]  

 

 

 

 

http://shrt10.com/wvH92OT
http://shrt10.com/aqz1xd2
http://shrt10.com/BHxwt
http://shrt10.com/wIy7qP
http://shrt10.com/CwI1ULAwt
http://shrt10.com/DBgrg90
http://shrt10.com/T8ahYCUJc
http://shrt10.com/afDsce7g
http://shrt10.com/n8CtB7vq
http://shrt10.com/z0M2Oo

 

 

Download Links with premium High Speed   

 

 

 

 

 

uploaded.net

 

 

 

nitroflare.com

 

 

 

rapidgator.net

 

 

 

uploadgig.com

 

 

 

 

 

dx-tv.com

 

urlfree.net

Leave a Reply

Your email address will not be published. Required fields are marked *

This site uses Akismet to reduce spam. Learn how your comment data is processed.