DDT Into the Fight 2021 02 28 DX-TV

DDT Into the Fight 2021 02 28 DX-TV

DDT Into the Fight 2021

 DDT Into the Fight 2021

 

 

 

Download Links with premium High Speed


 

Dopapk

 

 

Show Links

 

http://shrt10.com/lt1ZnPIK

 

[collapse]

 

 

Nitroflare

 

 

Show Links

 

http://shrt10.com/jO0yK

 

[collapse]

 

 

Rapidgator

 

 

Show Links

 

http://shrt10.com/2fU7bn

 

[collapse]

 

 

Uploaded

 

 

Show Links

 

http://shrt10.com/q6xeqDMX

 

[collapse]

 

 

Watch online

 

Server 1

 

 

 

 

watch now

 

 

 

 

Server-2

 

 

 

 

DDT Into the Fight

 

 

 

|Server-3

 

 

 

 

watch now

 

 

Uploaded By Site DX-TV.com

 

 

Show Info This Show

 

 

Complete name : 2021.02.28.DDT.Into.the.Fight.2021.Tokyo.Korakuen.Hall.(Samurai.TV).mp4
Format : MPEG-4
Format profile : Base Media
File size : 2.72 GiB
Duration : 2 h 27 min
Overall bit rate : 2 632 kb/s
Writing application : Lavf58.29.100

DDT Into the Fight

Video
ID : 1
Format : AVC
Duration : 2 h 27 min
Bit rate : 2 427 kb/s
Width : 1 280 pixels
Height : 720 pixels
Display aspect ratio : 16:9
Frame rate mode : Constant
Frame rate : 60.000 FPS
Color space : YUV
Chroma subsampling : 4:2:0
Bit depth : 8 bits
Scan type : Progressive
Bits/(Pixel*Frame) : 0.044
Stream size : 2.51 GiB (92%)
Color primaries : BT.709
Transfer characteristics : BT.709
Matrix coefficients : BT.709
Codec configuration box : avcC

Audio
ID : 2
Format : AAC LC
Format/Info : Advanced Audio
Codec ID : mp4a-40-2
Duration : 2 h 27 min
Bit rate mode : Constant
Bit rate : 192 kb/s
Channel(s) : 2 channels
Channel layout : L R
Sampling rate : 48.0 kHz
Frame rate : 46.875 FPS
Compression mode : Lossy
Stream size : 203 MiB
Default : Yes
Alternate group : 1

 

DDT Into the Fight

Audio
ID : 2
Format : AAC LC
Format/Info : Advanced Audio
Codec ID : mp4a-40-2
Duration : 2 h 27 min
Bit rate mode : Constant
Bit rate : 192 kb/s
Channel(s) : 2 channels
Channel layout : L R
Sampling rate : 48.0 kHz
Frame rate : 46.875 FPS
Compression mode : Lossy
Stream size : 203 MiB
Default : Yes
Alternate group : 1

DDT Into the Fight

 

Audio
ID : 2
Format : AAC LC
Format/Info : Advanced Audio
Codec ID : mp4a-40-2
Duration : 2 h 27 min
Bit rate mode : Constant
Bit rate : 192 kb/s
Channel(s) : 2 channels
Channel layout : L R
Sampling rate : 48.0 kHz
Frame rate : 46.875 FPS
Compression mode : Lossy
Stream size : 203 MiB
Default : Yes
Alternate group : 1

 

[collapse]

 

 

https://dx-tv.com/