NJPW Castle Attack Day 2 2021 02 28 DX-TV

NJPW Castle Attack Day 2 2021 02 28 DX-TV

NJPW Castle Attack Day 2

 NJPW Castle Attack Day 2

 

 

 

Download Links with High Speed


Dopapk

 

 

Show Links

 

http://shrt10.com/4RSG3
http://shrt10.com/6zeKXSLaH

 

[collapse]

 

 

Nitroflare

 

 

Show Links

 

http://shrt10.com/z0HAo
http://shrt10.com/7fh47HqZ

 

[collapse]

 

 

Rapidgator

 

 

Show Links

 

http://shrt10.com/HOnbvmgS
http://shrt10.com/3eOj3Ogax

 

[collapse]

 

 

Uploaded

 

 

Show Links

 

http://shrt10.com/6FWaM
http://shrt10.com/ZWi2K9

 

[collapse]

 

 

Watch online

 

Server 1

 

 

 

 

watch now

watch now

 

 

 

 

Server-2

 

 

 

 

NJPW Castle Attack Day 2

watch now

 

 

 

|Server-3

 

 

 

 

NJPW Castle Attack Day 2

watch now

 

 

Uploaded By Site DX-TV.com

 

 

Show Info This Show

 

 

Complete name : NJPW.2021.02.28.Castle.Attack.Day.2.JAPANESE.WEB.h264-LATE.mkv
Format : Matroska
Format version : Version 4
File size : 2.75 GiB
Duration : 3 h 21 min
Overall bit rate : 1 960 kb/s

NJPW Castle Attack 

Video
ID : 1
Format : AVC
Duration : 3 h 21 min
Bit rate : 1 858 kb/s
Width : 960 pixels
Height : 540 pixels
Display aspect ratio : 16:9
Frame rate mode : Constant
Frame rate : 30.000 FPS
Color space : YUV
Chroma subsampling : 4:2:0
Bit depth : 8 bits
Scan type : Progressive
Bits/(Pixel*Frame) : 0.119
Stream size : 2.61 GiB (95%)
Default : Yes
Forced : No
Color range : Limited
Color primaries : BT.601 PAL
Transfer characteristics : BT.601
Matrix coefficients : BT.470 System B/G

Audio
ID : 2
Format : AAC LC
Codec ID : A_AAC-2
Duration : 3 h 21 min
Bit rate : 99.9 kb/s
Channel(s) : 2 channels
Channel layout : L R
Sampling rate : 44.1 kHz
Frame rate : 43.066 FPS
Compression mode : Lossy
Stream size : 144 MiB (5%)
Language : English
Default : Yes
Forced : No

NJPW Castle Attack 

Complete name : NJPW.2021.02.28.Castle.Attack.Day.2.ENGLISH.WEB.h264-LATE.mkv
Format : Matroska
Format version : Version 4
File size : 2.74 GiB
Duration : 3 h 21 min
Overall bit rate : 1 951 kb/s

Video
ID : 1
Format : AVC
Format/Info : Advanced Video
Duration : 3 h 21 min
Bit rate : 1 849 kb/s
Width : 960 pixels
Height : 540 pixels
Display aspect ratio : 16:9
Frame rate mode : Constant
Frame rate : 30.000 FPS
Color space : YUV
Chroma subsampling : 4:2:0
Bit depth : 8 bits
Scan type : Progressive
Bits/(Pixel*Frame) : 0.119
Stream size : 2.60 GiB (95%)
Default : Yes
Forced : No
Color range : Limited
Color primaries : BT.601 PAL
Transfer characteristics : BT.601
Matrix coefficients : BT.470 System B/G

NJPW Castle Attack 

Audio
ID : 2
Format : AAC LC
Codec ID : A_AAC-2
Duration : 3 h 21 min
Bit rate : 99.8 kb/s
Channel(s) : 2 channels
Channel layout : L R
Sampling rate : 44.1 kHz
Frame rate : 43.066 FPS (1024 SPF)
Compression mode : Lossy
Stream size : 144 MiB (5%)
Language : English
Default : Yes
Forced : No

 

 

[collapse]

 

 

https://dx-tv.com/