DDT Chris Brookes Produce Show 3 2021 04 04 English DX-TV

DDT Chris Brookes Produce

 DDT Chris Brookes Produce

 

 

 

Download Links with premium High Speed


 

Dopapk

 

 

Show Links

 

http://shrt10.com/rT2BQVE

 

[collapse]

 

 

Nitroflare

 

 

Show Links

 

http://shrt10.com/jfAia9pC

 

[collapse]

 

 

Rapidgator

 

 

Show Links

 

http://shrt10.com/PwKk1r

 

[collapse]

 

 

Uploaded

 

 

Show Links

 

http://shrt10.com/2fHvLy

 

[collapse]

 

 

Watch online

 

Server 1

 

 

 

 

DDT Chris Brookes Produce

 

 

 

 

Server-2

 

 

 

 

watch now

 

 

 

|Server-3

 

 

 

 

DDT Chris Brookes Produce

 

 

Uploaded By Site DX-TV.com

 

 

Show Info This Show

 

 

Complete name : DDT.2021.04.04.Chris.Brookes.Produce.Show.3.ENGLISH.WEB.h264-LATE.mkv
Format : Matroska
Format version : Version 4
File size : 1.08 GiB
Duration : 1 h 22 min
Overall bit rate : 1 876 kb/s

DDT Chris Brookes

Video
ID : 1
Format : AVC
Duration : 1 h 22 min
Bit rate : 1 778 kb/s
Width : 960 pixels
Height : 540 pixels
Display aspect ratio : 16:9
Frame rate mode : Constant
Frame rate : 30.000 FPS
Color space : YUV
Chroma subsampling : 4:2:0
Bit depth : 8 bits
Scan type : Progressive
Bits/(Pixel*Frame) : 0.114
Stream size : 1.02 GiB (95%)
Default : Yes
Forced : No
Color range : Limited
Color primaries : BT.601 PAL
Transfer characteristics : BT.601
Matrix coefficients : BT.470 System B/G

Audio
ID : 2
Format : AAC LC
Format/Info : Advanced Audio
Codec ID : A_AAC-2
Duration : 1 h 22 min
Bit rate : 96.0 kb/s
Channel(s) : 2 channels
Channel layout : L R
Sampling rate : 44.1 kHz
Frame rate : 43.066 FPS (1024 SPF)
Compression mode : Lossy
Stream size : 56.3 MiB (5%)
Language : English
Default : Yes
Forced : No

DDT Chris Brookes

Audio
ID : 2
Format : AAC LC
Format/Info : Advanced Audio
Codec ID : A_AAC-2
Duration : 1 h 22 min
Bit rate : 96.0 kb/s
Channel(s) : 2 channels
Channel layout : L R
Sampling rate : 44.1 kHz
Frame rate : 43.066 FPS (1024 SPF)
Compression mode : Lossy
Stream size : 56.3 MiB (5%)
Language : English
Default : Yes
Forced : No

DDT Chris Brookes

Audio
ID : 2
Format : AAC LC
Format/Info : Advanced Audio
Codec ID : A_AAC-2
Duration : 1 h 22 min
Bit rate : 96.0 kb/s
Channel(s) : 2 channels
Channel layout : L R
Sampling rate : 44.1 kHz
Frame rate : 43.066 FPS (1024 SPF)
Compression mode : Lossy
Stream size : 56.3 MiB (5%)
Language : English
Default : Yes
Forced : No

Audio
ID : 2
Format : AAC LC
Format/Info : Advanced Audio
Codec ID : A_AAC-2
Duration : 1 h 22 min
Bit rate : 96.0 kb/s
Channel(s) : 2 channels
Channel layout : L R
Sampling rate : 44.1 kHz
Frame rate : 43.066 FPS (1024 SPF)
Compression mode : Lossy
Stream size : 56.3 MiB (5%)
Language : English
Default : Yes
Forced : No

DDT Chris Brookes

 

[collapse]

 

 

https://dx-tv.com/

Leave a Reply

Your email address will not be published. Required fields are marked *

This site uses Akismet to reduce spam. Learn how your comment data is processed.

Previous Post
Stardom wrestling

Stardom Yokohama Dream Cinderella 2021 04 04

Next Post
ROH Wrestling

ROH Wrestling Replay Online 02 April 2021 1080p