Stardom Yokohama Dream Cinderella 2021 04 04

Stardom Yokohama Dream Cinderella 2021 04 04 DX-TV

Stardom Yokohama Dream Cinderella

 Stardom Yokohama Dream Cinderella

 

 

 

Download Links with High Speed


Dopapk

 

 

Show Links

 

http://shrt10.com/7ZTro6

http://shrt10.com/sItVmo

[collapse]

 

 

Nitroflare

 

 

Show Links

 

http://shrt10.com/02TBxeHU
http://shrt10.com/hmeFinnI

 

[collapse]

 

 

Rapidgator

 

 

Show Links

 

http://shrt10.com/gGIqb
http://shrt10.com/ZRT7UU

 

[collapse]

 

 

Uploaded

 

 

Show Links

 

http://shrt10.com/lY4fn
http://shrt10.com/SmqPf

 

[collapse]

 

 

Watch Stardom Yokohama online

 

Server 1

 

 

 

 

watch now

 

 

 

 

Server-2

 

 

 

 

Stardom Yokohama Dream Cinderella

 

 

 

|Server-3

 

 

 

 

watch now

 

 

Uploaded By Site DX-TV.com

 

 

Show Info This Show

 

 

Complete name : 2021.04.04.Stardom.Yokohama.Dream.Cinderella.2021.(Samurai.TV).mp4
Format : MPEG-4
Format profile : Base Media
Codec ID : isom
File size : 4.64 GiB
Duration : 3 h 47 min
Overall bit rate : 2 911 kb/s

Stardom Yokohama Dream Cinderella

Video
ID : 1
Format : AVC
Duration : 3 h 47 min
Bit rate : 2 703 kb/s
Width : 1 280 pixels
Height : 720 pixels
Display aspect ratio : 16:9
Frame rate mode : Constant
Frame rate : 60.000 FPS
Color space : YUV
Chroma subsampling : 4:2:0
Bit depth : 8 bits
Scan type : Progressive
Bits/(Pixel*Frame) : 0.049
Stream size : 4.30 GiB (93%)
Color primaries : BT.709
Transfer characteristics : BT.709
Matrix coefficients : BT.709
Codec configuration box : avcC

Audio
ID : 2
Format : AAC LC
Format/Info : Advanced Audio
Codec ID : mp4a-40-2
Duration : 3 h 47 min
Bit rate mode : Constant
Bit rate : 192 kb/s
Channel(s) : 2 channels
Channel layout : L R
Sampling rate : 48.0 kHz
Frame rate : 46.875 FPS
Compression mode : Lossy
Stream size : 313 MiB (7%)
Default : Yes
Alternate group : 1

Stardom Yokohama Dream

Complete name : Stardom.Yokohama.Dream.Cinderella.2021.04.04. DX-TV.COM.mp4
Format : MPEG-4
Format profile : Base Media
Codec ID : isom
File size : 1.56 GiB
Duration : 3 h 50 min
Overall bit rate : 971 kb/s

Video
ID : 1
Format : AVC
Codec ID/Info : Advanced Video
Duration : 3 h 50 min
Bit rate : 836 kb/s
Width : 850 pixels
Height : 480 pixels
Display aspect ratio : 16:9
Frame rate mode : Variable
Frame rate : 25.000 FPS
Minimum frame rate : 8.333 FPS
Maximum frame rate : 25.000 FPS
Color space : YUV
Chroma subsampling : 4:2:0
Bit depth : 8 bits
Scan type : Progressive
Bits/(Pixel*Frame) : 0.082
Stream size : 1.34 GiB (86%)

Stardom Yokohama Dream

Audio
ID : 2
Format : AAC LC
Codec ID : mp4a-40-2
Duration : 3 h 50 min
Bit rate mode : Constant
Bit rate : 128 kb/s
Channel(s) : 2 channels
Channel layout : L R
Sampling rate : 44.1 kHz
Frame rate : 43.066 FPS (1024 SPF)
Compression mode : Lossy
Stream size : 211 MiB (13%)
Default : Yes
Alternate group : 1

 

 

[collapse]

 

 

https://dx-tv.com/