Bellator 242 24 07 2020 Free Online Pettis vs Bandejas RUSS

Watch Bellator 242 24 07 2020 Free Online Pettis vs Bandejas RUSS DX-TV

 

Bellator 242 Free Online
 Bellator 242 Free Online

 

Bellator 242 24 07 2020 Free Online Pettis vs Bandejas RUSS

 

Complete name : Bellator 242 Ricky Bandejas vs. Sergio Pettis 24.07.2020.mkv
Format : Matroska
Format version : Version 4
File size : 2.24 GiB
Duration : 2 h 4 min
Overall bit rate : 2 577 kb/s

242 24 07 2020 Free Online Pettis vs Bandejas RUSS

Video
ID : 1
Format : AVC
Duration : 2 h 4 min
Bit rate : 2 383 kb/s
Width : 720 pixels
Height : 576 pixels
Display aspect ratio : 16:9
Original display aspect rat : 16:9
Frame rate mode : Constant
Frame rate : 25.000 FPS
Standard : Component
Color space : YUV
Chroma sub sampling : 4:2:0
Bit depth : 8 bits
Scan type : Interlaced
Scan order : Top Field First
Bits/(Pixel*Frame) : 0.230
Stream size : 2.07 GiB (92%)
Default : No
Forced : No
Color range : Limited
Color primaries : BT.601 PAL

Bellator 242 24 07 2020 Free Online Pettis vs Bandejas

Audio
ID : 2
Format : MPEG Audio
version : Version 1
Format profile : Layer 2
Codec ID : A_MPEG/L2
Codec ID/Hint : MP2
Duration : 2 h 4 min
Bit rate mode : Constant
Bit rate : 192 kb/s
Channel(s) : 2 channels
Sampling rate : 48.0 kHz
Frame rate : 41.667 FPS (1152 SPF)
Compression mode : Lossy
Stream size : 171 MiB (7%)
Language : English
Default : Yes

Bellator 242 24 07 2020 Free Online

The Bellator MMA bantamweight division may have just found another viable contender for its vacant title. 

UFC veteran Sergio Pettis (20-5) improved to 2-0 inside the Bellator cage on Friday ,

after scoring a victory by unanimous decision (30-27, 30-27, 30-27) over Ricky Bandejas in the main event of Bellator 242. 

The card was the first for Bellator since late February before the start of the corona virus pandemic ,

and took place in what looks to be the promotion’s new home for the time being inside an empty Mohegan Sun Arena in Huntsville Connecticut. 

An injury to Kyoji Horiguchi forced the Bellator 135-pound title to go vacant last November.

Bellator 242 24 07 2020 Free Online Pettis vs Bandejas RUSS

Top contenders Juan Archuleta and Patrick Mix are expected to see their title bout get rescheduled in the near future.

The winner could end up seeing Pettis, however, in their first defense,

after how strong the 26-year-old looked in his second fight since becoming a free agent last year.

Pettis, the younger brother of former UFC lightweight champion Anthony Pettis,

extended his win streak to three overall by landing the cleaner strikes,

and relying on his experience to largely disarm the powerful Bandejas (13-4), who was fresh off a pair of knockout wins.

 

Bellator 242 24 07 2020 Free Online Pettis vs Bandejas RUSS

 

 

 

Watch online

 

 

Server 1

 

 

 

 

watch now

 

 

 

 

Server 2

 

 

 

watch now

 

 

 

Server-3

 

 

 

 Bellator 242 Free Online

 

 

 

Uploaded By Site DX-TV.com

 

 

 

Download with premium account Links 

 

 

Keep2Share

 

 

nitroflare.com

 

 

rapidgator.net

 

 

uploadgig.com

 

 

 

dx-tv.com

 

urlfree.net

Leave a Reply

Your email address will not be published. Required fields are marked *

This site uses Akismet to reduce spam. Learn how your comment data is processed.