Free Online 720p WWE Smackdown 24 07 2020

Watch WWE Smackdown Free 24 07 2020 720p WEB HEEL DX-TV

 

Free Smackdown online

 

 WWE Smack-Down
 

 

Free Online 720p WWE Smackdown 24 07 2020

 

 

 

Complete name : WWE.SmackDown.2020.07.24.720p.WEB.h264-HEEL.mp4
Format : MPEG-4
Format profile : Base Media
Codec ID : isom
File size : 6.53 GiB Free Smackdown online
Duration : 1 h 27 min
Overall bit rate mode : Variable
Overall bit rate : 10.7 Mb/s

Free Online 720p WWE Smackdown 24 07 2020

Video
ID : 1
Format : AVC
Format/Info : Advanced
Codec ID : avc1
Duration : 1 h 27 min
Bit rate mode : Variable
Bit rate : 10.7 Mb/s
Maximum bit rate : 12.0 Mb/s
Width : 1 280 pixels Free Smackdown online
Height : 720 pixels
Display aspect ratio : 16:9
Frame rate mode : Variable
Frame rate : 59.940 FPS
Minimum frame rate : 59.406 FPS
Maximum frame rate : 61.686 FPS
Original frame rate : 60.000 FPS
Color space : YUV
Chroma subsampling : 4:2:0
Bit depth : 8 bits
Scan type : Progressive
Bits/(Pixel*Frame) : 0.193
Stream size : 6.48 GiB (99%)
Color range : Limited Free Smackdown online
Color primaries : BT.709
Transfer characteristics : BT.709
Matrix coefficients : BT.709
Codec configuration box : avcC

Online 720p WWE Smackdown 24 07 2020

Audio
ID : 2
Format : AAC
Format/Info : Advanced
Commercial name : HE-AAC
Format settings : Implicit
Codec ID : mp4a-40-2
Duration : 1 h 27 min
Source duration : 1 h 27 min
Bit rate mode : Constant
Bit rate : 62.8 kb/s
Channel(s) : 2 channels
Channel layout : L R Free Smackdown online
Sampling rate : 48.0 kHz
Frame rate : 23.438 FPS (2048 SPF)
Compression mode : Lossy
Stream size : 39.1 MiB (1%)
Source stream size : 39.1 MiB (1%)
Default : Yes
Alternate group : 1
mdhd_Duration : 5224807

FreeĀ  720p WWE Smackdown 24 07 2020

Text
ID : 1-CC1
Format : EIA-608
Muxing mode : SCTE 128
Muxing mode, more infoFree Smackdown online
Duration : 1 h 27 min
Bit rate mode : Constant
Stream size : 0.00 Byte (0%)
CaptionServiceName : CC1

 

 

Free Online 720p WWE Smackdown 24 07 2020

 

 

 

Watch online

 

 

Server 1

 

 

 

 

watch now

 

 

 

 

Server 2

 

 

 

Free Smackdown online

 

 

 

Server-3

 

 

 

Free Smackdown online

 

 

 

Uploaded By Site DX-TV.com

 

 

 

Download with premium account LinksĀ 

 

 

Keep2Share

 

 

nitroflare.com

 

 

rapidgator.net

 

 

uploadgig.com

 

 

 

dx-tv.com

 

urlfree.net

 67 total views,  6 views today

Leave a Reply

Your email address will not be published. Required fields are marked *

This site uses Akismet to reduce spam. Learn how your comment data is processed.

%d bloggers like this: