AJPW Summer Action Series 2021 07 13 Day 2 Online Free Replay DX-TV

AJPW Summer Action

 AJPW Summer Action

 

 

 

Download Links with premium High Speed


 

Dopapk

 

 

Show Links

 

http://shrt10.com/p3BUhXk1

 

[collapse]

 

 

Nitroflare

 

 

Show Links

 

http://shrt10.com/KNf3JQAs

 

[collapse]

 

 

Rapidgator

 

 

Show Links

 

http://shrt10.com/SeXik

 

[collapse]

 

 

Uploaded

 

 

Show Links

 

http://shrt10.com/owjRsYbAu

 

[collapse]

 

 

Watch online

 

Server 1

 

 

 

 

AJPW Summer Action

 

 

 

 

Server-2

 

 

 

 

watch now

 

 

 

|Server-3

 

 

 

 

watch now

 

 

Uploaded By Site DX-TV.com

 

 

Show Info This Show

 

AJPW Summer Action

Complete name : 2021.07.13.AJPW.Summer.Action.Series.2021.Day.2.mp4
Format : MPEG-4
Format profile : Base Media
Codec ID : isom
File size : 2.05 GiB
Duration : 2 h 23 min
Overall bit rate : 2 042 kb/s

Video
ID : 1
Format : AVC
Format/Info : Advanced Video
Duration : 2 h 23 min
Bit rate : 1 938 kb/s
Width : 1 920 pixels
Height : 1 080 pixels
Display aspect ratio : 16:9
Frame rate mode : Variable
Frame rate : 29.970 (29970/1000) FPS
Minimum frame rate : 20.000 FPS
Maximum frame rate : 32.258 FPS
Color space : YUV
Chroma subsampling : 4:2:0
Bit depth : 8 bits
Scan type : Progressive
Bits/(Pixel*Frame) : 0.031
Stream size : 1.94 GiB (95%)
Color range : Full
Color primaries : BT.709
Transfer characteristics : BT.709
Matrix coefficients : BT.709
Codec configuration box : avc

AJPW Summer Action

Audio
ID : 2
Format : AAC LC
Format/Info : Advanced Audio
Codec ID : mp4a-40-2
Duration : 2 h 23 min
Bit rate mode : Constant
Bit rate : 96.0 kb/s
Channel(s) : 2 channels
Channel layout : L R
Sampling rate : 48.0 kHz
Frame rate : 46.875 FPS (1024 SPF)
Compression mode : Lossy
Stream size : 98.5 MiB (5%)
Default : Yes
Alternate group : 1

AJPW Summer Action

Complete name : 2021.07.13.AJPW.Summer.Action.Series.2021.Day.2.mp4
Format : MPEG-4
Format profile : Base Media
Codec ID : isom
File size : 2.05 GiB
Duration : 2 h 23 min
Overall bit rate : 2 042 kb/s

Video
ID : 1
Format : AVC
Format/Info : Advanced Video
Duration : 2 h 23 min
Bit rate : 1 938 kb/s
Width : 1 920 pixels
Height : 1 080 pixels
Display aspect ratio : 16:9
Frame rate mode : Variable
Frame rate : 29.970 (29970/1000) FPS
Minimum frame rate : 20.000 FPS
Maximum frame rate : 32.258 FPS
Color space : YUV
Chroma subsampling : 4:2:0
Bit depth : 8 bits
Scan type : Progressive
Bits/(Pixel*Frame) : 0.031
Stream size : 1.94 GiB (95%)
Color range : Full
Color primaries : BT.709
Transfer characteristics : BT.709
Matrix coefficients : BT.709
Codec configuration box : avc

AJPW Summer Action

Audio
ID : 2
Format : AAC LC
Format/Info : Advanced Audio
Codec ID : mp4a-40-2
Duration : 2 h 23 min
Bit rate mode : Constant
Bit rate : 96.0 kb/s
Channel(s) : 2 channels
Channel layout : L R
Sampling rate : 48.0 kHz
Frame rate : 46.875 FPS (1024 SPF)
Compression mode : Lossy
Stream size : 98.5 MiB (5%)
Default : Yes
Alternate group : 1

AJPW Summer Action

Complete name : 2021.07.13.AJPW.Summer.Action.Series.2021.Day.2.mp4
Format : MPEG-4
Format profile : Base Media
Codec ID : isom
File size : 2.05 GiB
Duration : 2 h 23 min
Overall bit rate : 2 042 kb/s

Video
ID : 1
Format : AVC
Format/Info : Advanced Video
Duration : 2 h 23 min
Bit rate : 1 938 kb/s
Width : 1 920 pixels
Height : 1 080 pixels
Display aspect ratio : 16:9
Frame rate mode : Variable
Frame rate : 29.970 (29970/1000) FPS
Minimum frame rate : 20.000 FPS
Maximum frame rate : 32.258 FPS
Color space : YUV
Chroma subsampling : 4:2:0
Bit depth : 8 bits
Scan type : Progressive
Bits/(Pixel*Frame) : 0.031
Stream size : 1.94 GiB (95%)
Color range : Full
Color primaries : BT.709
Transfer characteristics : BT.709
Matrix coefficients : BT.709
Codec configuration box : avc

AJPW Summer Action

Audio
ID : 2
Format : AAC LC
Format/Info : Advanced Audio
Codec ID : mp4a-40-2
Duration : 2 h 23 min
Bit rate mode : Constant
Bit rate : 96.0 kb/s
Channel(s) : 2 channels
Channel layout : L R
Sampling rate : 48.0 kHz
Frame rate : 46.875 FPS (1024 SPF)
Compression mode : Lossy
Stream size : 98.5 MiB (5%)
Default : Yes
Alternate group : 1

AJPW Summer Action

Complete name : 2021.07.13.AJPW.Summer.Action.Series.2021.Day.2.mp4
Format : MPEG-4
Format profile : Base Media
Codec ID : isom
File size : 2.05 GiB
Duration : 2 h 23 min
Overall bit rate : 2 042 kb/s

Video
ID : 1
Format : AVC
Format/Info : Advanced Video
Duration : 2 h 23 min
Bit rate : 1 938 kb/s
Width : 1 920 pixels
Height : 1 080 pixels
Display aspect ratio : 16:9
Frame rate mode : Variable
Frame rate : 29.970 (29970/1000) FPS
Minimum frame rate : 20.000 FPS
Maximum frame rate : 32.258 FPS
Color space : YUV
Chroma subsampling : 4:2:0
Bit depth : 8 bits
Scan type : Progressive
Bits/(Pixel*Frame) : 0.031
Stream size : 1.94 GiB (95%)
Color range : Full
Color primaries : BT.709
Transfer characteristics : BT.709
Matrix coefficients : BT.709
Codec configuration box : avc

AJPW Summer Action

Audio
ID : 2
Format : AAC LC
Format/Info : Advanced Audio
Codec ID : mp4a-40-2
Duration : 2 h 23 min
Bit rate mode : Constant
Bit rate : 96.0 kb/s
Channel(s) : 2 channels
Channel layout : L R
Sampling rate : 48.0 kHz
Frame rate : 46.875 FPS (1024 SPF)
Compression mode : Lossy
Stream size : 98.5 MiB (5%)
Default : Yes
Alternate group : 1

AJPW Summer Action

Complete name : 2021.07.13.AJPW.Summer.Action.Series.2021.Day.2.mp4
Format : MPEG-4
Format profile : Base Media
Codec ID : isom
File size : 2.05 GiB
Duration : 2 h 23 min
Overall bit rate : 2 042 kb/s

Video
ID : 1
Format : AVC
Format/Info : Advanced Video
Duration : 2 h 23 min
Bit rate : 1 938 kb/s
Width : 1 920 pixels
Height : 1 080 pixels
Display aspect ratio : 16:9
Frame rate mode : Variable
Frame rate : 29.970 (29970/1000) FPS
Minimum frame rate : 20.000 FPS
Maximum frame rate : 32.258 FPS
Color space : YUV
Chroma subsampling : 4:2:0
Bit depth : 8 bits
Scan type : Progressive
Bits/(Pixel*Frame) : 0.031
Stream size : 1.94 GiB (95%)
Color range : Full
Color primaries : BT.709
Transfer characteristics : BT.709
Matrix coefficients : BT.709
Codec configuration box : avc

AJPW Summer Action

Audio
ID : 2
Format : AAC LC
Format/Info : Advanced Audio
Codec ID : mp4a-40-2
Duration : 2 h 23 min
Bit rate mode : Constant
Bit rate : 96.0 kb/s
Channel(s) : 2 channels
Channel layout : L R
Sampling rate : 48.0 kHz
Frame rate : 46.875 FPS (1024 SPF)
Compression mode : Lossy
Stream size : 98.5 MiB (5%)
Default : Yes
Alternate group : 1

AJPW Summer Action

Complete name : 2021.07.13.AJPW.Summer.Action.Series.2021.Day.2.mp4
Format : MPEG-4
Format profile : Base Media
Codec ID : isom
File size : 2.05 GiB
Duration : 2 h 23 min
Overall bit rate : 2 042 kb/s

Video
ID : 1
Format : AVC
Format/Info : Advanced Video
Duration : 2 h 23 min
Bit rate : 1 938 kb/s
Width : 1 920 pixels
Height : 1 080 pixels
Display aspect ratio : 16:9
Frame rate mode : Variable
Frame rate : 29.970 (29970/1000) FPS
Minimum frame rate : 20.000 FPS
Maximum frame rate : 32.258 FPS
Color space : YUV
Chroma subsampling : 4:2:0
Bit depth : 8 bits
Scan type : Progressive
Bits/(Pixel*Frame) : 0.031
Stream size : 1.94 GiB (95%)
Color range : Full
Color primaries : BT.709
Transfer characteristics : BT.709
Matrix coefficients : BT.709
Codec configuration box : avc

AJPW Summer Action

Audio
ID : 2
Format : AAC LC
Format/Info : Advanced Audio
Codec ID : mp4a-40-2
Duration : 2 h 23 min
Bit rate mode : Constant
Bit rate : 96.0 kb/s
Channel(s) : 2 channels
Channel layout : L R
Sampling rate : 48.0 kHz
Frame rate : 46.875 FPS (1024 SPF)
Compression mode : Lossy
Stream size : 98.5 MiB (5%)
Default : Yes
Alternate group : 1

AJPW Summer Action

Complete name : 2021.07.13.AJPW.Summer.Action.Series.2021.Day.2.mp4
Format : MPEG-4
Format profile : Base Media
Codec ID : isom
File size : 2.05 GiB
Duration : 2 h 23 min
Overall bit rate : 2 042 kb/s

Video
ID : 1
Format : AVC
Format/Info : Advanced Video
Duration : 2 h 23 min
Bit rate : 1 938 kb/s
Width : 1 920 pixels
Height : 1 080 pixels
Display aspect ratio : 16:9
Frame rate mode : Variable
Frame rate : 29.970 (29970/1000) FPS
Minimum frame rate : 20.000 FPS
Maximum frame rate : 32.258 FPS
Color space : YUV
Chroma subsampling : 4:2:0
Bit depth : 8 bits
Scan type : Progressive
Bits/(Pixel*Frame) : 0.031
Stream size : 1.94 GiB (95%)
Color range : Full
Color primaries : BT.709
Transfer characteristics : BT.709
Matrix coefficients : BT.709
Codec configuration box : avc

AJPW Summer Action

Audio
ID : 2
Format : AAC LC
Format/Info : Advanced Audio
Codec ID : mp4a-40-2
Duration : 2 h 23 min
Bit rate mode : Constant
Bit rate : 96.0 kb/s
Channel(s) : 2 channels
Channel layout : L R
Sampling rate : 48.0 kHz
Frame rate : 46.875 FPS (1024 SPF)
Compression mode : Lossy
Stream size : 98.5 MiB (5%)
Default : Yes
Alternate group : 1

AJPW Summer Action

Complete name : 2021.07.13.AJPW.Summer.Action.Series.2021.Day.2.mp4
Format : MPEG-4
Format profile : Base Media
Codec ID : isom
File size : 2.05 GiB
Duration : 2 h 23 min
Overall bit rate : 2 042 kb/s

Video
ID : 1
Format : AVC
Format/Info : Advanced Video
Duration : 2 h 23 min
Bit rate : 1 938 kb/s
Width : 1 920 pixels
Height : 1 080 pixels
Display aspect ratio : 16:9
Frame rate mode : Variable
Frame rate : 29.970 (29970/1000) FPS
Minimum frame rate : 20.000 FPS
Maximum frame rate : 32.258 FPS
Color space : YUV
Chroma subsampling : 4:2:0
Bit depth : 8 bits
Scan type : Progressive
Bits/(Pixel*Frame) : 0.031
Stream size : 1.94 GiB (95%)
Color range : Full
Color primaries : BT.709
Transfer characteristics : BT.709
Matrix coefficients : BT.709
Codec configuration box : avc

AJPW Summer Action

Audio
ID : 2
Format : AAC LC
Format/Info : Advanced Audio
Codec ID : mp4a-40-2
Duration : 2 h 23 min
Bit rate mode : Constant
Bit rate : 96.0 kb/s
Channel(s) : 2 channels
Channel layout : L R
Sampling rate : 48.0 kHz
Frame rate : 46.875 FPS (1024 SPF)
Compression mode : Lossy
Stream size : 98.5 MiB (5%)
Default : Yes
Alternate group : 1

AJPW Summer Action

Complete name : 2021.07.13.AJPW.Summer.Action.Series.2021.Day.2.mp4
Format : MPEG-4
Format profile : Base Media
Codec ID : isom
File size : 2.05 GiB
Duration : 2 h 23 min
Overall bit rate : 2 042 kb/s

Video
ID : 1
Format : AVC
Format/Info : Advanced Video
Duration : 2 h 23 min
Bit rate : 1 938 kb/s
Width : 1 920 pixels
Height : 1 080 pixels
Display aspect ratio : 16:9
Frame rate mode : Variable
Frame rate : 29.970 (29970/1000) FPS
Minimum frame rate : 20.000 FPS
Maximum frame rate : 32.258 FPS
Color space : YUV
Chroma subsampling : 4:2:0
Bit depth : 8 bits
Scan type : Progressive
Bits/(Pixel*Frame) : 0.031
Stream size : 1.94 GiB (95%)
Color range : Full
Color primaries : BT.709
Transfer characteristics : BT.709
Matrix coefficients : BT.709
Codec configuration box : avc

AJPW Summer Action

Audio
ID : 2
Format : AAC LC
Format/Info : Advanced Audio
Codec ID : mp4a-40-2
Duration : 2 h 23 min
Bit rate mode : Constant
Bit rate : 96.0 kb/s
Channel(s) : 2 channels
Channel layout : L R
Sampling rate : 48.0 kHz
Frame rate : 46.875 FPS (1024 SPF)
Compression mode : Lossy
Stream size : 98.5 MiB (5%)
Default : Yes
Alternate group : 1

AJPW Summer Action

Complete name : 2021.07.13.AJPW.Summer.Action.Series.2021.Day.2.mp4
Format : MPEG-4
Format profile : Base Media
Codec ID : isom
File size : 2.05 GiB
Duration : 2 h 23 min
Overall bit rate : 2 042 kb/s

Video
ID : 1
Format : AVC
Format/Info : Advanced Video
Duration : 2 h 23 min
Bit rate : 1 938 kb/s
Width : 1 920 pixels
Height : 1 080 pixels
Display aspect ratio : 16:9
Frame rate mode : Variable
Frame rate : 29.970 (29970/1000) FPS
Minimum frame rate : 20.000 FPS
Maximum frame rate : 32.258 FPS
Color space : YUV
Chroma subsampling : 4:2:0
Bit depth : 8 bits
Scan type : Progressive
Bits/(Pixel*Frame) : 0.031
Stream size : 1.94 GiB (95%)
Color range : Full
Color primaries : BT.709
Transfer characteristics : BT.709
Matrix coefficients : BT.709
Codec configuration box : avc

AJPW Summer Action

Audio
ID : 2
Format : AAC LC
Format/Info : Advanced Audio
Codec ID : mp4a-40-2
Duration : 2 h 23 min
Bit rate mode : Constant
Bit rate : 96.0 kb/s
Channel(s) : 2 channels
Channel layout : L R
Sampling rate : 48.0 kHz
Frame rate : 46.875 FPS (1024 SPF)
Compression mode : Lossy
Stream size : 98.5 MiB (5%)
Default : Yes
Alternate group : 1

AJPW Summer Action

Complete name : 2021.07.13.AJPW.Summer.Action.Series.2021.Day.2.mp4
Format : MPEG-4
Format profile : Base Media
Codec ID : isom
File size : 2.05 GiB
Duration : 2 h 23 min
Overall bit rate : 2 042 kb/s

Video
ID : 1
Format : AVC
Format/Info : Advanced Video
Duration : 2 h 23 min
Bit rate : 1 938 kb/s
Width : 1 920 pixels
Height : 1 080 pixels
Display aspect ratio : 16:9
Frame rate mode : Variable
Frame rate : 29.970 (29970/1000) FPS
Minimum frame rate : 20.000 FPS
Maximum frame rate : 32.258 FPS
Color space : YUV
Chroma subsampling : 4:2:0
Bit depth : 8 bits
Scan type : Progressive
Bits/(Pixel*Frame) : 0.031
Stream size : 1.94 GiB (95%)
Color range : Full
Color primaries : BT.709
Transfer characteristics : BT.709
Matrix coefficients : BT.709
Codec configuration box : avc

AJPW Summer Action

Audio
ID : 2
Format : AAC LC
Format/Info : Advanced Audio
Codec ID : mp4a-40-2
Duration : 2 h 23 min
Bit rate mode : Constant
Bit rate : 96.0 kb/s
Channel(s) : 2 channels
Channel layout : L R
Sampling rate : 48.0 kHz
Frame rate : 46.875 FPS (1024 SPF)
Compression mode : Lossy
Stream size : 98.5 MiB (5%)
Default : Yes
Alternate group : 1

AJPW Summer Action

Complete name : 2021.07.13.AJPW.Summer.Action.Series.2021.Day.2.mp4
Format : MPEG-4
Format profile : Base Media
Codec ID : isom
File size : 2.05 GiB
Duration : 2 h 23 min
Overall bit rate : 2 042 kb/s

Video
ID : 1
Format : AVC
Format/Info : Advanced Video
Duration : 2 h 23 min
Bit rate : 1 938 kb/s
Width : 1 920 pixels
Height : 1 080 pixels
Display aspect ratio : 16:9
Frame rate mode : Variable
Frame rate : 29.970 (29970/1000) FPS
Minimum frame rate : 20.000 FPS
Maximum frame rate : 32.258 FPS
Color space : YUV
Chroma subsampling : 4:2:0
Bit depth : 8 bits
Scan type : Progressive
Bits/(Pixel*Frame) : 0.031
Stream size : 1.94 GiB (95%)
Color range : Full
Color primaries : BT.709
Transfer characteristics : BT.709
Matrix coefficients : BT.709
Codec configuration box : avc

AJPW Summer Action

Audio
ID : 2
Format : AAC LC
Format/Info : Advanced Audio
Codec ID : mp4a-40-2
Duration : 2 h 23 min
Bit rate mode : Constant
Bit rate : 96.0 kb/s
Channel(s) : 2 channels
Channel layout : L R
Sampling rate : 48.0 kHz
Frame rate : 46.875 FPS (1024 SPF)
Compression mode : Lossy
Stream size : 98.5 MiB (5%)
Default : Yes
Alternate group : 1

AJPW Summer Action

Complete name : 2021.07.13.AJPW.Summer.Action.Series.2021.Day.2.mp4
Format : MPEG-4
Format profile : Base Media
Codec ID : isom
File size : 2.05 GiB
Duration : 2 h 23 min
Overall bit rate : 2 042 kb/s

Video
ID : 1
Format : AVC
Format/Info : Advanced Video
Duration : 2 h 23 min
Bit rate : 1 938 kb/s
Width : 1 920 pixels
Height : 1 080 pixels
Display aspect ratio : 16:9
Frame rate mode : Variable
Frame rate : 29.970 (29970/1000) FPS
Minimum frame rate : 20.000 FPS
Maximum frame rate : 32.258 FPS
Color space : YUV
Chroma subsampling : 4:2:0
Bit depth : 8 bits
Scan type : Progressive
Bits/(Pixel*Frame) : 0.031
Stream size : 1.94 GiB (95%)
Color range : Full
Color primaries : BT.709
Transfer characteristics : BT.709
Matrix coefficients : BT.709
Codec configuration box : avc

AJPW Summer Action

Audio
ID : 2
Format : AAC LC
Format/Info : Advanced Audio
Codec ID : mp4a-40-2
Duration : 2 h 23 min
Bit rate mode : Constant
Bit rate : 96.0 kb/s
Channel(s) : 2 channels
Channel layout : L R
Sampling rate : 48.0 kHz
Frame rate : 46.875 FPS (1024 SPF)
Compression mode : Lossy
Stream size : 98.5 MiB (5%)
Default : Yes
Alternate group : 1

AJPW Summer Action

Complete name : 2021.07.13.AJPW.Summer.Action.Series.2021.Day.2.mp4
Format : MPEG-4
Format profile : Base Media
Codec ID : isom
File size : 2.05 GiB
Duration : 2 h 23 min
Overall bit rate : 2 042 kb/s

Video
ID : 1
Format : AVC
Format/Info : Advanced Video
Duration : 2 h 23 min
Bit rate : 1 938 kb/s
Width : 1 920 pixels
Height : 1 080 pixels
Display aspect ratio : 16:9
Frame rate mode : Variable
Frame rate : 29.970 (29970/1000) FPS
Minimum frame rate : 20.000 FPS
Maximum frame rate : 32.258 FPS
Color space : YUV
Chroma subsampling : 4:2:0
Bit depth : 8 bits
Scan type : Progressive
Bits/(Pixel*Frame) : 0.031
Stream size : 1.94 GiB (95%)
Color range : Full
Color primaries : BT.709
Transfer characteristics : BT.709
Matrix coefficients : BT.709
Codec configuration box : avc

AJPW Summer Action

Audio
ID : 2
Format : AAC LC
Format/Info : Advanced Audio
Codec ID : mp4a-40-2
Duration : 2 h 23 min
Bit rate mode : Constant
Bit rate : 96.0 kb/s
Channel(s) : 2 channels
Channel layout : L R
Sampling rate : 48.0 kHz
Frame rate : 46.875 FPS (1024 SPF)
Compression mode : Lossy
Stream size : 98.5 MiB (5%)
Default : Yes
Alternate group : 1

AJPW Summer Action

Complete name : 2021.07.13.AJPW.Summer.Action.Series.2021.Day.2.mp4
Format : MPEG-4
Format profile : Base Media
Codec ID : isom
File size : 2.05 GiB
Duration : 2 h 23 min
Overall bit rate : 2 042 kb/s

Video
ID : 1
Format : AVC
Format/Info : Advanced Video
Duration : 2 h 23 min
Bit rate : 1 938 kb/s
Width : 1 920 pixels
Height : 1 080 pixels
Display aspect ratio : 16:9
Frame rate mode : Variable
Frame rate : 29.970 (29970/1000) FPS
Minimum frame rate : 20.000 FPS
Maximum frame rate : 32.258 FPS
Color space : YUV
Chroma subsampling : 4:2:0
Bit depth : 8 bits
Scan type : Progressive
Bits/(Pixel*Frame) : 0.031
Stream size : 1.94 GiB (95%)
Color range : Full
Color primaries : BT.709
Transfer characteristics : BT.709
Matrix coefficients : BT.709
Codec configuration box : avc

AJPW Summer Action

Audio
ID : 2
Format : AAC LC
Format/Info : Advanced Audio
Codec ID : mp4a-40-2
Duration : 2 h 23 min
Bit rate mode : Constant
Bit rate : 96.0 kb/s
Channel(s) : 2 channels
Channel layout : L R
Sampling rate : 48.0 kHz
Frame rate : 46.875 FPS (1024 SPF)
Compression mode : Lossy
Stream size : 98.5 MiB (5%)
Default : Yes
Alternate group : 1

AJPW Summer Action

Complete name : 2021.07.13.AJPW.Summer.Action.Series.2021.Day.2.mp4
Format : MPEG-4
Format profile : Base Media
Codec ID : isom
File size : 2.05 GiB
Duration : 2 h 23 min
Overall bit rate : 2 042 kb/s

Video
ID : 1
Format : AVC
Format/Info : Advanced Video
Duration : 2 h 23 min
Bit rate : 1 938 kb/s
Width : 1 920 pixels
Height : 1 080 pixels
Display aspect ratio : 16:9
Frame rate mode : Variable
Frame rate : 29.970 (29970/1000) FPS
Minimum frame rate : 20.000 FPS
Maximum frame rate : 32.258 FPS
Color space : YUV
Chroma subsampling : 4:2:0
Bit depth : 8 bits
Scan type : Progressive
Bits/(Pixel*Frame) : 0.031
Stream size : 1.94 GiB (95%)
Color range : Full
Color primaries : BT.709
Transfer characteristics : BT.709
Matrix coefficients : BT.709
Codec configuration box : avc

AJPW Summer Action

Audio
ID : 2
Format : AAC LC
Format/Info : Advanced Audio
Codec ID : mp4a-40-2
Duration : 2 h 23 min
Bit rate mode : Constant
Bit rate : 96.0 kb/s
Channel(s) : 2 channels
Channel layout : L R
Sampling rate : 48.0 kHz
Frame rate : 46.875 FPS (1024 SPF)
Compression mode : Lossy
Stream size : 98.5 MiB (5%)
Default : Yes
Alternate group : 1

AJPW Summer Action

Complete name : 2021.07.13.AJPW.Summer.Action.Series.2021.Day.2.mp4
Format : MPEG-4
Format profile : Base Media
Codec ID : isom
File size : 2.05 GiB
Duration : 2 h 23 min
Overall bit rate : 2 042 kb/s

Video
ID : 1
Format : AVC
Format/Info : Advanced Video
Duration : 2 h 23 min
Bit rate : 1 938 kb/s
Width : 1 920 pixels
Height : 1 080 pixels
Display aspect ratio : 16:9
Frame rate mode : Variable
Frame rate : 29.970 (29970/1000) FPS
Minimum frame rate : 20.000 FPS
Maximum frame rate : 32.258 FPS
Color space : YUV
Chroma subsampling : 4:2:0
Bit depth : 8 bits
Scan type : Progressive
Bits/(Pixel*Frame) : 0.031
Stream size : 1.94 GiB (95%)
Color range : Full
Color primaries : BT.709
Transfer characteristics : BT.709
Matrix coefficients : BT.709
Codec configuration box : avc

AJPW Summer Action

Audio
ID : 2
Format : AAC LC
Format/Info : Advanced Audio
Codec ID : mp4a-40-2
Duration : 2 h 23 min
Bit rate mode : Constant
Bit rate : 96.0 kb/s
Channel(s) : 2 channels
Channel layout : L R
Sampling rate : 48.0 kHz
Frame rate : 46.875 FPS (1024 SPF)
Compression mode : Lossy
Stream size : 98.5 MiB (5%)
Default : Yes
Alternate group : 1

AJPW Summer Action

Complete name : 2021.07.13.AJPW.Summer.Action.Series.2021.Day.2.mp4
Format : MPEG-4
Format profile : Base Media
Codec ID : isom
File size : 2.05 GiB
Duration : 2 h 23 min
Overall bit rate : 2 042 kb/s

Video
ID : 1
Format : AVC
Format/Info : Advanced Video
Duration : 2 h 23 min
Bit rate : 1 938 kb/s
Width : 1 920 pixels
Height : 1 080 pixels
Display aspect ratio : 16:9
Frame rate mode : Variable
Frame rate : 29.970 (29970/1000) FPS
Minimum frame rate : 20.000 FPS
Maximum frame rate : 32.258 FPS
Color space : YUV
Chroma subsampling : 4:2:0
Bit depth : 8 bits
Scan type : Progressive
Bits/(Pixel*Frame) : 0.031
Stream size : 1.94 GiB (95%)
Color range : Full
Color primaries : BT.709
Transfer characteristics : BT.709
Matrix coefficients : BT.709
Codec configuration box : avc

AJPW Summer Action

Audio
ID : 2
Format : AAC LC
Format/Info : Advanced Audio
Codec ID : mp4a-40-2
Duration : 2 h 23 min
Bit rate mode : Constant
Bit rate : 96.0 kb/s
Channel(s) : 2 channels
Channel layout : L R
Sampling rate : 48.0 kHz
Frame rate : 46.875 FPS (1024 SPF)
Compression mode : Lossy
Stream size : 98.5 MiB (5%)
Default : Yes
Alternate group : 1

AJP

Complete name : 2021.07.13.AJPW.Summer.Action.Series.2021.Day.2.mp4
Format : MPEG-4
Format profile : Base Media
Codec ID : isom
File size : 2.05 GiB
Duration : 2 h 23 min
Overall bit rate : 2 042 kb/s

Video
ID : 1
Format : AVC
Format/Info : Advanced Video
Duration : 2 h 23 min
Bit rate : 1 938 kb/s
Width : 1 920 pixels
Height : 1 080 pixels
Display aspect ratio : 16:9
Frame rate mode : Variable
Frame rate : 29.970 (29970/1000) FPS
Minimum frame rate : 20.000 FPS
Maximum frame rate : 32.258 FPS
Color space : YUV
Chroma subsampling : 4:2:0
Bit depth : 8 bits
Scan type : Progressive
Bits/(Pixel*Frame) : 0.031
Stream size : 1.94 GiB (95%)
Color range : Full
Color primaries : BT.709
Transfer characteristics : BT.709
Matrix coefficients : BT.709
Codec configuration box : avc

AJPW Summer Action

Audio
ID : 2
Format : AAC LC
Format/Info : Advanced Audio
Codec ID : mp4a-40-2
Duration : 2 h 23 min
Bit rate mode : Constant
Bit rate : 96.0 kb/s
Channel(s) : 2 channels
Channel layout : L R
Sampling rate : 48.0 kHz
Frame rate : 46.875 FPS (1024 SPF)
Compression mode : Lossy
Stream size : 98.5 MiB (5%)
Default : Yes
Alternate group : 1

AJPW Summer Action

Complete name : 2021.07.13.AJPW.Summer.Action.Series.2021.Day.2.mp4
Format : MPEG-4
Format profile : Base Media
Codec ID : isom
File size : 2.05 GiB
Duration : 2 h 23 min
Overall bit rate : 2 042 kb/s

Video
ID : 1
Format : AVC
Format/Info : Advanced Video
Duration : 2 h 23 min
Bit rate : 1 938 kb/s
Width : 1 920 pixels
Height : 1 080 pixels
Display aspect ratio : 16:9
Frame rate mode : Variable
Frame rate : 29.970 (29970/1000) FPS
Minimum frame rate : 20.000 FPS
Maximum frame rate : 32.258 FPS
Color space : YUV
Chroma subsampling : 4:2:0
Bit depth : 8 bits
Scan type : Progressive
Bits/(Pixel*Frame) : 0.031
Stream size : 1.94 GiB (95%)
Color range : Full
Color primaries : BT.709
Transfer characteristics : BT.709
Matrix coefficients : BT.709
Codec configuration box : avc

AJPW Summer Action

Audio
ID : 2
Format : AAC LC
Format/Info : Advanced Audio
Codec ID : mp4a-40-2
Duration : 2 h 23 min
Bit rate mode : Constant
Bit rate : 96.0 kb/s
Channel(s) : 2 channels
Channel layout : L R
Sampling rate : 48.0 kHz
Frame rate : 46.875 FPS (1024 SPF)
Compression mode : Lossy
Stream size : 98.5 MiB (5%)
Default : Yes
Alternate group : 1

AJPW Summer Action

Complete name : 2021.07.13.AJPW.Summer.Action.Series.2021.Day.2.mp4
Format : MPEG-4
Format profile : Base Media
Codec ID : isom
File size : 2.05 GiB
Duration : 2 h 23 min
Overall bit rate : 2 042 kb/s

Video
ID : 1
Format : AVC
Format/Info : Advanced Video
Duration : 2 h 23 min
Bit rate : 1 938 kb/s
Width : 1 920 pixels
Height : 1 080 pixels
Display aspect ratio : 16:9
Frame rate mode : Variable
Frame rate : 29.970 (29970/1000) FPS
Minimum frame rate : 20.000 FPS
Maximum frame rate : 32.258 FPS
Color space : YUV
Chroma subsampling : 4:2:0
Bit depth : 8 bits
Scan type : Progressive
Bits/(Pixel*Frame) : 0.031
Stream size : 1.94 GiB (95%)
Color range : Full
Color primaries : BT.709
Transfer characteristics : BT.709
Matrix coefficients : BT.709
Codec configuration box : avc

AJPW Summer Action

Audio
ID : 2
Format : AAC LC
Format/Info : Advanced Audio
Codec ID : mp4a-40-2
Duration : 2 h 23 min
Bit rate mode : Constant
Bit rate : 96.0 kb/s
Channel(s) : 2 channels
Channel layout : L R
Sampling rate : 48.0 kHz
Frame rate : 46.875 FPS (1024 SPF)
Compression mode : Lossy
Stream size : 98.5 MiB (5%)
Default : Yes
Alternate group : 1

AJPW Summer Action

 

W Summer Action

 

[collapse]

 

 

https://dx-tv.com/

Leave a Reply

Your email address will not be published. Required fields are marked *

This site uses Akismet to reduce spam. Learn how your comment data is processed.

Previous Post
AEW DARK -

AEW DARK 13th July 2021 Online Free

Next Post
AEW Fyter Fest Night 1

AEW Fyter Fest Night 1 Free Live 2021 July 14