AEW Night 1 Fyter Fest 2020 07 01 720p Free Online

Watch AEW Night 1 Fyter Fest 2020 07 01 720p Free Online DX-TV

 

AEW Fyter Fest

 AEW Fyter Fest

 

AEW Night 1 Fyter Fest 2020 07 01 720p Free Online

 

 

 

Complete name : AEW.Dynamite.2020.07.01.720p.WEB.h264-HEEL – By DX-TV.COM.mp4
Format : MPEG-4
Format profile : Base Media
Codec ID : AEW Fyter Fest
File size : 1.62 GiB
Duration : 2 h 2 min
Overall bit rate : 1 897 kb/s
Writing application : Lavf58.32.104

Night 1 Fyter Fest 2020 07 01 720p

Video
ID : 1
Format : AVC
Format/Info : Advanced Video Codec
fFormat profile : [email protected]
aFormat settings : CABAC
Format settings, CABAC : Yes
AEW Fyter Fest: 4 frames
Format settings, GOP : M=4, N=60
Codec ID : avc1
Codec ID/Info : AEW Fyter Fest Coding
Duration : 2 h 2 min
Bit rate : 1 793 kb/s
Width : 1 280 pixels
Height : 720 pixels
Display aspect ratio : 16:9
Frame rate mode : Variable
Frame rate : 29.970 (29970/1000) FPS
Minimum frame rate : 2.494 FPS
Maximum frame rate : 30.303 FPS
Color space : YUV
Chroma subsampling : 4:2:0
Bit depth : 8 bits
Scan type : Progressive
Bits/(Pixel*Frame) : 0.065
Stream size : 1.53 GiB (94%)
Codec AEW Fyter Fest box : avcC

Night 1 Fyter Fest 2020 07 01 720p 

Audio
ID : 2
Format : AAC LC
Format/Info : AEW Fyter Fest Complexity
Codec ID : mp4a-40-2
Duration : 2 h 2 min
Bit rate mode : Constant
Bit rate : 96.0 kb/s
Channel(s) : 2 channels
Channel layout : L R
Sampling rate : 44.1 kHz
Frame rate : 43.066 FPS (1024 SPF)
AEW Fyter Fest mode : Lossy
Stream size : 82.6 MiB (5%)
Default : Yes
Alternate group : 1

 

NIGHT 1 Fyter Fest 

 

MJF & Wardlow vs Luchasaurus & Jungle Boy

 

Private Party vs Santana & Ortiz

 

AEW WOMEN’S WORLD TITLE

 

Hikaru Shida vs Penelope Ford

 

AEW WORLD TAG TEAM TITLES

 

Kenny Omega & Hangman Page vs The Best Friends

 

TNT TITLE MATCH

 

Cody vs Jake Hager

 

 

AEW Night 1 Fyter Fest 2020 07 01 720p Free Online

 

 

 

Watch online

 

 

Server 1

 

 

 

 

watch now

 

 

 

 

Server 2

 

 

 

watch now

 

 

 

Server-3

 

 

 

AEW Fyter Fest

 

 

 

Uploaded By Site DX-TV.com

 

 

 

Download with premium account Links 

 

 

Keep2Share

 

 

nitroflare.com

 

 

rapidgator.net

 

 

uploadgig.com

 

 

 

dx-tv.com

 

urlfree.net

Leave a Reply

Your email address will not be published. Required fields are marked *

This site uses Akismet to reduce spam. Learn how your comment data is processed.