AEW Fyter Fest Night 1 2020 07 01 1080p Full Show Online

Watch AEW Fyter Fest Night 1 2020 07 01 1080p DX-TV 

 

AEW Fyter Fest Night 1

 AEW Fyter Fest
 

 

AEW Fyter Fest Night 1 2020 07 01 1080p Full Show Online

 

Complete name : AEW.Dynamite.2020.07.01.1080p.WEB.h264-HEEL .mp4
Format : MPEG-4
Format profile : Base Media
Codec ID : isom AEW Fyter Fest
File size : 3.50 GiB
Duration : 2 h 2 min
Overall bit rate : 4 107 kb/s
Writing application : Lavf58.43.100

Fyter Fest Night 1 2020 07 01 1080p 

Video
ID : 1
Format : AVC
Format/Info : Advanced Video Codec
eFormat profile : [email protected]
Format settings : CABAC / 4 Ref Frames
rFormat settings, CABAC : Yes
AEW Fyter Fest : 4 frames
Format settings, GOP : M=4, N=60
Codec ID : avc1
Codec ID/Info : Advanced Video Coding
Duration : 2 h 2 min
Source duration : 2 h 2 min
Bit rate : 3 850 kb/s
Width : 1 920 pixels
Height : 1 080 pixels
Display aspect ratio : 16:9
Frame rate mode : Variable
Frame rate : 29.970 (29970/1000) FPS
Minimum frame rate : 2.494 FPS
Maximum frame rate : 30.303 FPS
Color space : YUV
Chroma AEW Fyter Fest : 4:2:0
Bit depth : 8 bits
Scan type : Progressive
Bits/(Pixel*Frame) : 0.062
Stream size : 3.28 GiB (94%)
Source stream size : 3.28 GiB (94%)
mdhd_Duration : 7320481
Codec configuration box : avcC

Fyter Fest Night 1 2020 07 01 1080p Full Show Online

Audio #1
ID : 2
Format : AAC LC
Format/Info : AEW Fyter Fest Codec 
Codec ID : mp4a-40-2
Duration : 2 h 2 min
Bit rate mode : Constant
Bit rate : 126 kb/s
Channel(s) : 2 channels
Channel layout : L R
Sampling rate : 44.1 kHz
Frame rate : 43.066 FPS (1024 SPF)
Compression mode : Lossy
Stream size : 110 MiB (3%)
Language : English
Default : Yes
Alternate group : 1

Audio #2
ID : 3
Format : AAC LC
Format/Info : AEW Fyter Fest Codec 
Codec ID : mp4a-40-2
Duration : 2 h 2 min
Bit rate mode : Constant
Bit rate : 126 kb/s
Channel(s) : 2 channels
Channel layout : L R
Sampling rate : 44.1 kHz
Frame rate : 43.066 FPS (1024 SPF)
AEW Fyter Fest mode : Lossy
Stream size : 110 MiB (3%)
Language : Spanish
Default : No
Alternate group : 1

 

AEW Fyter Fest Night 1 2020 07 01 1080p Full Show Online

 

NIGHT 1 AEW Fyter Fest

 

MJF & Wardlow vs Luchasaurus & Jungle Boy

Private Party vs Santana & Ortiz

AEW WOMEN’S WORLD TITLE

Hikaru Shida vs Penelope Ford

AEW WORLD TAG TEAM TITLES

Kenny Omega & Hangman Page vs The Best Friends

TNT TITLE MATCH

Cody vs Jake Hager

 

AEW Fyter Fest Night 1 2020 07 01 1080p Full Show Online

 

 

 

Watch online

 

 

Server 1

 

 

 

 

watch now

 

 

 

 

Server 2

 

 

 

watch now

 

 

 

Server-3

 

 

 

AEW Fyter Fest Night 1

 

 

 

Uploaded By Site DX-TV.com

 

 

 

Download with premium account Links 

 

 

Keep2Share

 

 

nitroflare.com

 

 

rapidgator.net

 

 

uploadgig.com

 

 

 

dx-tv.com

 

urlfree.net

Leave a Reply

Your email address will not be published. Required fields are marked *

This site uses Akismet to reduce spam. Learn how your comment data is processed.