AEW Dynamite November 04 2020 Full Show Online /720p

Watch AEW Dynamite November 04 2020 HDTV NWCHD /720p DX-TV

AEW Dynamite 04 November 2020

 

 AEW Dynamite 04 November 2020

AEW Dynamite November 04 2020 Full Show Online /720p

 

The Inner Circle (Ortiz & Sammy Guevara) vs. MJF & Wardlow

As MJF has continued to make his hard push for membership in The Inner Circle, it has becoming abundantly clear .

that not all members of Chris Jericho’s unit are on the same page for that particular item. That being said.

Max has also made it crystal that he doesn’t genuinely care about any other opinion outside of “The DemoGod”.

So it was of little surprise, after Jericho declared he and MJF would go head-to-head at FULL GEAR 2020 over Max’s membership,

that Ortiz interjected himself into the moment to assert his thoughts.

AEW Dynamite 04 November 2020

What was a bit of a surprise though was Ortiz taking his objections one step further and challenging Max to grab Wardlow .

and meet he and Sammy Guevara in the ring this week on DYNAMITE.

It will mark the first time Sammy and Ortiz will unite in a traditional tag team match.

having competed in several unsuccessful multi-man bouts in the last year with The Inner Circle,

and just the second time their opposition has ever teamed up in a duos bout.

That one, by the by, did not swing in the favor of MJF and Wardlow.

AEW Dynamite 04 November 2020

Still, this contest is one of three men with something to prove, and Wardlow along for the ride whether he likes it or not. After all.

as we definitively learned several weeks ago, “The War Dog” is contracted to Max rather than All Elite Wrestling.

and as such is rather indentured to Mister So-Called Salt Of The Earth.

The Inner Circle duo aims to prove MJF does not belong with the group on any level involvement,

be it at the most superficial or deep within the heart of the group.

Maxwell needs the win on DYNAMITE heading into this Jericho fight at the pay-per-view to prove some of what .

he can bring to the table for The I.C., aside from another perpetually running mouth to go along with the former AEW World Champion’s.

 Dynamite 04 November 2020

Since being introduced to the AEW faithful as The Best Man for the impending Kip Sabian and Penelope Ford nuptials,

Miro has been an intimidating presence inside that ring.

In his pair of appearances in tag team action,

Miro has been as powerful and dominant inside the ring as anyone else in All Elite Wrestling.

He has also proven quite protective of the bride and groom to be,

as evidenced by what has transpired since Trent accidentally decimated Sabian’s gaming system at ringside.

AEW Dynamite 04 November 2020

First they beat up The Best Friends after their failed bid at FTR’s World Tag Team Titles,

then the moment in the locker rooms embedded above, and just this past Monday night.

the following interview conducted by Excalibur between Trent.

and Miro via video conference in hopes of some civil discourse between the two combatants:

Clearly civility did not rule this day as it broke down into angry ranting from Miro, flippant words (and fingers) from Trent,

and even some call backs to their shared history from years ago.

It is quite evident that one-half of The Best Friends is coming into Wednesday night looking for a fight, and that Miro,

in his first singles match since January, is raring for a battle himself.

It’s a powder keg waiting to explode, and it will go boom on DYNAMITE!

AEW Dynamite 04 November 2020

March 11th, Salt Lake City, DYNAMITE; that was the final time fans witnessed PAC compete inside the AEW ring.

That night he, Penta El Zero Miedo, and Rey Fenix decimated the trio of Joey Janela and Private Party in six-man action.

Collectively known as The Death Triangle, these three warriors from the United Kingdom.

and Mexico were poised to unleash their own brand of hell on the roster of All Elite Wrestling.

Their collective aggressive natures, their high-flying abilities, their hard-hitting strikes,

combined it made for one of the scariest units on the AEW roster,

and nearly eight months ago PAC, Penta, and Fenix put them all on notice.

AEW Dynamite 04 November 2020

Then March 12th came and the entire world was forced to face the realities that came with the ever-growing COVID pandemic.

Travel restrictions and bans affected the ability of numerous roster members to come into the United States for events,

affected how AEW was able to put on its live events, and certainly affected the plans many wrestlers had for their futures.

 

Complete name : C:\DX\WWE\Downloading\AEW.Dynamite.2020.11.04.HDTV.x264-NWCHD.mp4
Format : MPEG-4
Format profile : Base Media
Codec ID : isom (isom/iso2/avc1/mp41)
File size : 1.15 GiB
Duration : 1 h 44 min
Overall bit rate : 1 577 kb/s
Writing application : Lavf58.27.103

AEW Dynamite 04 November 2020

Video
ID : 1
Format : AVC
Duration : 1 h 44 min
Bit rate : 1 400 kb/s
Width : 704 pixels
Height : 400 pixels
Display aspect ratio : 16:9
Frame rate mode : Variable
rate : 29.970 (30000/1001) FPS
Color space : YUV
Chroma subsampling : 4:2:0
Bit depth : 8 bits
Scan type : Progressive
Bits/(Pixel*Frame) : 0.166
Stream size : 1.01 GiB (87%)
Color primaries : BT.709
Transfer characteristics : BT.709
Matrix coefficients : BT.709
Codec configuration box : avcC

AEW Dynamite 04 November 2020

Audio
ID : 2
Format : AAC LC
Format/Info : Advanced Audio
Codec ID : mp4a-40-2
Duration : 1 h 44 min
Bit rate mode : Constant
Bit rate : 192 kb/s
Channel(s) : 2 channels
Channel layout : L R
Sampling rate : 48.0 kHz
Frame rate : 46.875 FPS (1024 SPF)
Compression mode : Lossy
Stream size : 144 MiB (12%)
Title : Stereo
Language : English
Default : Yes
Alternate group : 1

 

 

 

AEW Dynamite November 04 2020 Full Show Online /720p

 

Watch online

 

Server 1

 

 

 

 

 

 

 

 

Server-2

 

 

 

 

 

 

 

 

Uploaded By Site DX-TV.com

 

 

 

 

Download Free Links with normal and high Speed [ more 14 hosts ]  

 

 

 

 

http://shrt10.com/diF3OL7g5
http://shrt10.com/maIUjJ
http://shrt10.com/IaOeTLt
http://shrt10.com/hKCyyzS
http://shrt10.com/6718Mn
http://shrt10.com/zq60pNfHc
http://shrt10.com/KojBN
http://shrt10.com/Jxkcdgsc
http://shrt10.com/6vzD95bJ
http://shrt10.com/Zo7prSP
http://shrt10.com/alf5RB8d8
http://shrt10.com/mpMb4VYi4
http://shrt10.com/sFyKEu
http://shrt10.com/OVa9za

 

 

 

Download Links with premium High Speed   

 

 

 

 

dropapk.to

http://shrt10.com/KmjjS
http://shrt10.com/WJHxeiOe4

 

 

nitroflare.com

http://shrt10.com/zI9GxaZgi
http://shrt10.com/qRHUpOei

 

 

rapidgator.net

http://shrt10.com/ForR1Q
http://shrt10.com/wwtEeeX

 

 

uploaded.net

http://shrt10.com/Cd54euV
http://shrt10.com/dIsCK

 

 

uploadgig.com

http://shrt10.com/0QzUecLOp
http://shrt10.com/YHkkE7Cd

 

 

 

 

dx-tv.com

 

urlfree.net

Leave a Reply

Your email address will not be published. Required fields are marked *

This site uses Akismet to reduce spam. Learn how your comment data is processed.