Watch UWN Primetime Live 3 nov 2020 720p Full Show Online

UWN Primetime Live 3 nov 2020 720p Full Show Online DX-TV

Watch UWN Primetime Live

 

 Watch UWN Primetime Live
 


 

 

Watch UWN Primetime Live 3 nov 2020 720p Full Show Online

 

Singles Match
Lio Rush defeated Fidel Bravo.

UWN World Championship Tournament First Round Match
Fred Rosser defeated Erick Redbeard via disqualification.

Singles Match
Heather Monroe (w/Halston Boddy) defeated Miranda Alize.

UWN World Championship Tournament First Round Match
Shawn Daivari defeated Rocky Romero.

UWN World Championship Tournament First Round Match
Mike Bennett defeated Kevin Martenson.

 UWN Primetime Live

Complete name : UWN Primetime Live 3 nov 2020 720p WEB DX-TV.mp4
Format : MPEG-4
Format profile : Base Media
Codec ID : isom
File size : 1.34 GiB
Duration : 1 h 28 min
Overall bit rate : 2 169 kb/s
Writing application : Lavf57.71

Watch UWN Primetime Live

Video
ID : 1
Format : AVC
Duration : 1 h 28 min
Bit rate : 2 000 kb/s
Width : 1 280 pixels
Height : 720 pixels
Display ratio : 16:9
Frame rate mode : Constant
Frame rate : 25.000 FPS
Color space : YUV
Chroma subsampling : 4:2:0
Bit depth : 8 bits
Scan type : Progressive
Bits/(Pixel*Frame) : 0.087
Stream size : 1.24 GiB (92%)
Codec box : avcC

Watch UWN Primetime Live

Audio
ID : 2
Format : AAC LC
Format/Info : Advanced Audio
Codec ID : mp4a-40-2
Duration : 1 h 28 min
Bit rate mode : Constant
Bit rate : 162 kb/s
Channel(s) : 2 channels
Channel layout : L R
Sampling rate : 44.1 kHz
Frame rate : 43.066 FPS
Compression mode : Lossy
Stream size : 102 MiB (7%)
Default : Yes
Alternate group : 1

 

 

 UWN Primetime Live 3 nov 2020 720p Full Show Online

 

Watch online

 

Server 1

 

 

 

 

 

 

Watch UWN Primetime Live

 

Server-2

 

 

 

 

 

 

 

 

Uploaded By Site DX-TV.com

 

 

 

 

Download Free Links with normal and high Speed [ more 14 hosts ]  

 

[su_expand more_text=”Show Hosts Info” less_text=”Close all Info” height=”30″ text_color=”#000000″ link_color=”#e25f8b” link_style=”button” more_icon=”icon: arrow-down” less_icon=”icon: arrow-up”]

 

 UWN Primetime Live

hexupload.net – clicknupload.co – www.multiup.org – uptobox.com – anonfiles.com – userscloud.com –

dropapk.to alfafile.net – ddownload.com – rockfile.co – 1fichier.com – filedown.org – katfile.com – filerio.in

 

 

[/su_expand]

 

 

 

 

 

 

 

Download Links with premium High Speed   

 

 

 

 

dropapk.to

 

 

 

nitroflare.com

 

 

 

rapidgator.net

 

 

 

uploaded.net

 

 

 

uploadgig.com

 

 

 

 

 

dx-tv.com

 

urlfree.net

Leave a Reply

Your email address will not be published. Required fields are marked *

This site uses Akismet to reduce spam. Learn how your comment data is processed.