AEW Dynamite 2021 02 03 1080p DX-TV

AEW Dynamite 2021 02 03 720p /1080p DX-TV

AEW Dynamite 2021 02 03

 AEW Dynamite 2021 02 03

 

Download Links with premium High Speed   

 

 

dropapk.to

http://shrt10.com/GkvMurw
http://shrt10.com/W6YjINtMx

 

 

nitroflare.com

http://shrt10.com/cXlyP
http://shrt10.com/LiBNfi

 

 

rapidgator.net

http://shrt10.com/ozG6WN
http://shrt10.com/VOFJNba

 

 

uploaded.net

http://shrt10.com/kNwketL
http://shrt10.com/wfQtZ

 

 

 

Watch AEW Dynamite online

 

Server 1

 

 

 

 

watch now

 

 

 

 

Server-2

 

 

 

 

watch now

 

 

Uploaded By Site DX-TV.com

 

Complete name : AEW.Dynamite.2021.02.03.720p.WEB.h264-HEEL.mp4
Format : MPEG-4
Format profile : Base Media
Codec ID : isom
File size : 1.65 GiB
Duration : 2 h 0 min
Overall bit rate : 1 962 kb/s
Writing application : Lavf58.32.104

AEW Dynamite 2021

Video
ID : 1
Format : AVC
Format/Info : Advanced Video
Duration : 2 h 0 min
Bit rate : 1 856 kb/s
Width : 1 280 pixels
Height : 720 pixels
Display aspect ratio : 16:9
Frame rate mode : Variable
Frame rate : 29.970 FPS
Minimum frame rate : 29.412 FPS
Maximum frame rate : 30.303 FPS
Color space : YUV
Chroma subsampling : 4:2:0
Bit depth : 8 bits
Scan type : Progressive
Bits/(Pixel*Frame) : 0.067
Stream size : 1.56 GiB (95%)
Codec configuration box : avc

AEW Dynamite 2021

Audio
ID : 2
Format : AAC LC
Format/Info : Advanced Audio
Codec ID : mp4a-40-2
Duration : 2 h 0 min
Bit rate mode : Constant
Bit rate : 96.0 kb/s
Channel(s) : 2 channels
Channel layout : L R
Sampling rate : 48.0 kHz
Frame rate : 46.875 FPS
Compression mode : Lossy
Stream size : 82.6 MiB (5%)
Default : Yes
Alternate group : 1

Complete name : AEW.Dynamite.2021.02.03.1080p.WEB.h264-HEEL.mp4
Format : MPEG-4
Format profile : Base Media
Codec ID : isom
File size : 3.42 GiB
Duration : 2 h 0 min
Overall bit rate mode : Variable
Overall bit rate : 4 077 kb/s
Writing application : Lavf58.32.104

AEW Dynamite 2021

Video
ID : 1
Format : AVC
Format/Info : Advanced Video
Duration : 2 h 0 min
Bit rate : 3 939 kb/s
Width : 1 920 pixels
Height : 1 080 pixels
Display aspect ratio : 16:9
Frame rate mode : Variable
Frame rate : 29.970 FPS
Minimum frame rate : 29.412 FPS
Maximum frame rate : 30.303 FPS
Color space : YUV
Chroma subsampling : 4:2:0
Bit depth : 8 bits
Scan type : Progressive
Bits/(Pixel*Frame) : 0.063
Stream size : 3.31 GiB
Codec configuration box : avc

AEW Dynamite  

Audio
ID : 2
Format : AAC LC
Format/Info : Advanced
Codec ID : mp4a-40-2
Duration : 2 h 0 min
Bit rate mode : Variable
Bit rate : 129 kb/s
Channel(s) : 2 channels
Channel layout : L R
Sampling rate : 48.0 kHz
Frame rate : 46.875 FPS
Compression mode : Lossy
Stream size : 110 MiB
Default : Yes
Alternate group : 1

AEW Dynamite  

 

https://dx-tv.com/

You May Also Like

Leave a Reply

Your email address will not be published. Required fields are marked *

This site uses Akismet to reduce spam. Learn how your comment data is processed.