Watch Wrestling Online DDT 2021 01 31 New Year Dramatic

Watch Wrestling Online DDT 2021 01 31 New Year Dramatic Itaba Series 2021 720p DX-TV

Watch Wrestling Online 

 Watch Wrestling Online DDT

 

Download Links with premium High Speed   

 

 

dropapk.to

http://shrt10.com/jzrYjB65

 

 

nitroflare.com

http://shrt10.com/9NtwlIGZo

 

 

rapidgator.net

 

http://shrt10.com/SJOy4U

 

uploaded.net

http://shrt10.com/7AG6Z

 

 

 

Uploaded By Site DX-TV.com

Watch Wrestling Online

Complete name : DDT.2021.01.31.02.Toru.Owashi.vs.Antonio.Honda.vs.Keigo.Nakamura.720p.WEB.h264-LATE.mkv
Format : Matroska
Format version : Version 4
File size : 180 MiB
Duration : 12 min 33 s
Overall bit rate : 2 001 kb/s

Video
ID : 1
Format : AVC
Format/Info : Advanced Video
Duration : 12 min 33 s
Bit rate : 1 904 kb/s
Width : 1 280 pixels
Height : 720 pixels
Display aspect ratio : 16:9
Frame rate mode : Constant
Frame rate : 30.000 FPS
Color space : YUV
Chroma subsampling : 4:2:0
Bit depth : 8 bits
Scan type : Progressive
Bits/(Pixel*Frame) : 0.069
Stream size : 171 MiB (95%)
Forced : No

Watch Wrestling Online

Audio
ID : 2
Format : AAC LC
Format/Info : Advanced Audio
Codec ID : A_AAC-2
Duration : 12 min 33 s
Bit rate : 93.6 kb/s
Channel(s) : 2 channels
Channel layout : L R
Sampling rate : 44.1 kHz
Frame rate : 43.066 FPS (1024 SPF)
Compression mode : Lossy
Delay relative to video : -23 ms
Stream size : 8.40 MiB (5%)
Default : Yes
Forced : No

Complete name : DDT.2021.01.31.04.HARASHIMA.and.Danshoku.Dino.vs.Akito.and.Kazuki.Hirata.720p.WEB.h264-LATE.mkv
Format : Matroska
Format version : Version 4
File size : 404 MiB
Duration : 28 min 13 s
Overall bit rate : 1 999 kb/s

Video
ID : 1
Format : AVC
Format/Info : Advanced Video
Duration : 28 min 13 s
Bit rate : 1 904 kb/s
Width : 1 280 pixels
Height : 720 pixels
Display aspect ratio : 16:9
Frame rate mode : Constant
Frame rate : 30.000 FPS
Color space : YUV
Chroma subsampling : 4:2:0
Bit depth : 8 bits
Scan type : Progressive
Bits/(Pixel*Frame) : 0.069
Stream size : 384 MiB (95%)
Forced : No

Watch Wrestling Online

Audio
ID : 2
Format : AAC LC
Format/Info : Advanced Audio
Codec ID : A_AAC-2
Duration : 28 min 13 s
Bit rate : 93.6 kb/s
Channel(s) : 2 channels
Channel layout : L R
Sampling rate : 44.1 kHz
Frame rate : 43.066 FPS (1024 SPF)
Compression mode : Lossy
Delay relative to video : -23 ms
Stream size : 18.9 MiB (5%)
Default : Yes
Forced : No

Watch Wrestling

 

https://dx-tv.com/

You May Also Like

Leave a Reply

Your email address will not be published. Required fields are marked *

This site uses Akismet to reduce spam. Learn how your comment data is processed.