AEW Dynamite 2020 12 23 720p/ 1080p DX-TV

AEW Dynamite 2020 12 23 720p/ 1080p DX-TV

AEW Dynamite 2020 12 23

 AEW Dynamite 2020 12 23

 

Download Links with premium High Speed   

 

 

nitroflare.com

http://shrt10.com/8n7aWR
http://shrt10.com/fPkAXWbg

 

 

rapidgator.net

http://shrt10.com/lmBEsrSJL
http://shrt10.com/siAHT

 

 

uploaded.net

http://shrt10.com/umUWegSh
http://shrt10.com/TcosO

 

 

uploadgig.com

http://shrt10.com/wI25jl6
http://shrt10.com/c5Tvx

 

 

Watch online

 

Server 1

 

 

 

 

AEW Dynamite 2020 12 23

 

 

 

 

Server-2

 

 

 

 

watch now

 

 

Uploaded By Site DX-TV.com

 

 

 

[su_expand more_text=”Show More Info” less_text=”Close all Info” height=”50″ text_color=”#000000″ link_color=”#e25f8b” link_style=”button” more_icon=”icon: arrow-down” less_icon=”icon: arrow-up”]

Complete name : AEW.Dynamite.2020.12.23.720p.WEB.h264-HEEL.mp4
Format : MPEG-4
Format profile : Base Media
Codec ID : isom
File size : 1.62 GiB
Duration : 2 h 0 min
Overall bit rate : 1 931 kb/s
Writing application : Lavf58.32.104

 Dynamite 2020 12 23

Video
ID : 1
Format : AVC
Duration : 1 h 59 min
Bit rate : 1 825 kb/s
Nominal bit rate : 2 300 kb/s
Width : 1 280 pixels
Height : 720 pixels
Display aspect ratio : 16:9
Frame rate mode : Constant
Frame rate : 30.000 FPS
Color space : YUV
Chroma subsampling : 4:2:0
Bit depth : 8 bits
Scan type : Progressive
Bits/(Pixel*Frame) : 0.066
Stream size : 1.53 GiB (95%)
Writing library : x264 core 152

 Dynamite 2020 

Audio
ID : 2
Format : AAC LC
Format/Info : Advanced Audio
Codec ID : mp4a-40-2
Duration : 2 h 0 min
Bit rate mode : Constant
Bit rate : 96.0 kb/s
Channel(s) : 2 channels
Channel layout : L R
Sampling rate : 48.0 kHz
Frame rate : 46.875 FPS (1024 SPF)
Compression mode : Lossy
Stream size : 83.5 MiB (5%)
Default : Yes
Alternate group : 1

Complete name : AEW.Dynamite.2020.12.23.1080p.WEB.h264-HEEL.mp4
Format : MPEG-4
Format profile : Base Media
File size : 3.85 GiB
Duration : 2 h 0 min
Overall bit rate mode : Variable
Overall bit rate : 4 591 kb/s
Writing application : Lavf58.63.100

 Dynamite 2020 12 23

Video
ID : 1
Format : AVC
Duration : 2 h 0 min
Source duration : 1 h 59 min
Bit rate : 4 138 kb/s
Nominal bit rate : 4 800 kb/s
Width : 1 920 pixels
Height : 1 080 pixels
Display aspect ratio : 16:9
Frame rate mode : Constant
Frame rate : 30.000 FPS
Color space : YUV
Chroma subsampling : 4:2:0
Bit depth : 8 bits
Scan type : Progressive
Bits/(Pixel*Frame) : 0.067
Codec configuration box : avc

AEW Dynamite 2020 12 23

Audio #1
ID : 2
Format : AAC LC
Format/Info : Advanced Audio Codec Low Complexity
Codec ID : mp4a-40-2
Duration : 2 h 0 min
Bit rate mode : Constant
Bit rate : 132 kb/s
Channel(s) : 2 channels
Channel layout : L R
Sampling rate : 48.0 kHz
Frame rate : 46.875 FPS (1024 SPF)
Compression mode : Lossy
Stream size : 111 MiB (3%)
Language : English
Default : Yes
Alternate group : 1

AEW Dynamite  

Audio #2
ID : 3
Format : AAC LC
Format/Info : Advanced Audio Codec Low Complexity
Codec ID : mp4a-40-2
Duration : 2 h 0 min
Bit rate mode : Variable
Bit rate : 128 kb/s
Maximum bit rate : 138 kb/s / 138 kb/s
Channel(s) : 2 channels
Channel layout : L R
Sampling rate : 48.0 kHz
Frame rate : 46.875 FPS (1024 SPF)
Compression mode : Lossy
Stream size : 110 MiB (3%)
Language : Spanish
Default : No
Alternate group : 1

 

[/su_expand]

 

https://dx-tv.com/

Leave a Reply

Your email address will not be published. Required fields are marked *

This site uses Akismet to reduce spam. Learn how your comment data is processed.