WWE NXT 23 DEC 2020 Full Show 720p Star DX-TV

WWE NXT 23 DEC 2020 Full Show 720p Star DX-TV

WWE NXT 23 DEC 2020

WWE NXT Free Live 2020 NOV 04

 

Download Links with premium High Speed   

 

nitroflare.com

http://shrt10.com/DRXalmyY
http://shrt10.com/YJDxZ

 

 

rapidgator.net

http://shrt10.com/hwTWqK
http://shrt10.com/jV0cENoJ

 

 

uploaded.net

http://shrt10.com/Q6dP4PEv
http://shrt10.com/sDiJxE5v9

 

 

uploadgig.com

http://shrt10.com/XiWiLtZ8P
http://shrt10.com/YN6ScWNJ

 

 

Watch online

 

Server 1

 

 

 

 

WWE NXT 23 DEC 2020

 

 

 

 

Server-2

 

 

 

 

watch now

 

 

Uploaded By Site DX-TV.com

 

 

 

[su_expand more_text=”Show More Info” less_text=”Close all Info” height=”50″ text_color=”#000000″ link_color=”#e25f8b” link_style=”button” more_icon=”icon: arrow-down” less_icon=”icon: arrow-up”]

Complete name : WWE.NXT.2020.12.23.HDTV.x264-Star.mp4
Format : MPEG-4
Format profile : Base Media
Codec ID : mp42
File size : 944 MiB
Duration : 1 h 32 min
Overall bit rate : 1 422 kb/s

WWE NXT 23 DEC 2020

Video
ID : 1
Format : AVC
Duration : 1 h 32 min
Bit rate : 1 300 kb/s
Width : 720 pixels
Height : 480 pixels
Display aspect ratio : 16:9
display aspect rat : 16:9
Frame rate mode : Constant
Frame rate : 29.970 FPS
Standard : NTSC
Color space : YUV
Chroma subsampling : 4:2:0
Bit depth : 8 bits
Scan type : Progressive
Bits/(Pixel*Frame) : 0.126
Stream size : 864 MiB (92%)
Color range : Limited
Color primaries : BT.709
Transfer characteristics : BT.709
Matrix coefficients : BT.709
Codec configuration box : avc

WWE NXT 23 DEC 2020

Audio
ID : 2
Format : AAC LC
Format/Info : Advanced Audio
Codec ID : mp4a-40-2
Duration : 1 h 32 min
Bit rate mode : Constant
Bit rate : 112 kb/s
Channel(s) : 2 channels
Channel layout : L R
Sampling rate : 48.0 kHz
Frame rate : 46.875 FPS (1024 SPF)
Compression mode : Lossy
Stream size : 74.1 MiB (8%)
Title : Stereo
Default : Yes
Alternate group : 1

Complete name : WWE.NXT.2020.12.23.720p.HDTV.x264-Star.mkv
Format : Matroska
Format version : Version 4
File size : 2.68 GiB
Duration : 1 h 32 min
Overall bit rate : 4 135 kb/s
Writing library : Lavf58.29.100

WWE NXT 23  

Video
ID : 1
Format : AVC
Codec ID : V_MPEG4
Duration : 1 h 32 min
Bit rate : 4 000 kb/s
Width : 1 280 pixels
Height : 720 pixels
Display aspect ratio : 16:9
Frame rate mode : Constant
Frame rate : 29.970 FPS
Color space : YUV
Chroma subsampling : 4:2:0
Bit depth : 8 bits
Scan type : Progressive
Bits/(Pixel*Frame) : 0.145
Stream size : 2.55 GiB (95%)
Forced : No
Color range : Limited
Color primaries : BT.709
Transfer characteristics : BT.709
Matrix coefficients : BT.709

 NXT 23 DEC 2020

Audio
ID : 2
Format : AC-3
Format/Info : Audio Coding 3
Commercial name : Dolby Digital
Codec ID : A_AC3
Duration : 1 h 32 min
Bit rate mode : Constant
Bit rate : 128 kb/s
Channel(s) : 2 channels
Channel layout : L R
Sampling rate : 48.0 kHz
Frame rate : 31.250 FPS
Compression mode : Lossy
Delay relative to video : -5 ms
Stream size : 85.0 MiB (3%)
Title : Stereo
Service kind : Complete Main
Default : Yes
Forced : No

WWE NXT 23  

[/su_expand]

 

https://dx-tv.com/

Leave a Reply

Your email address will not be published. Required fields are marked *

This site uses Akismet to reduce spam. Learn how your comment data is processed.