AEW Dynamite 13 01 2021 720p / 1080p DX-TV

AEW Dynamite 13 01 2021 720p / 1080p DX-TV

AEW Dynamite 13 01 2021

 AEW Dynamite 13 01 2021

 

Download Links with premium High Speed   

 

 

nitroflare.com

http://shrt10.com/poFUp
http://shrt10.com/dCRafFGi

 

 

rapidgator.net

http://shrt10.com/JodHLtl5
http://shrt10.com/GupzuTl

 

 

uploaded.net

http://shrt10.com/FomtD6Z
http://shrt10.com/OJzn47XG3

 

 

uploadgig.com

http://shrt10.com/s67Pakx
http://shrt10.com/HzfBy5

 

Watch AEW Dynamite  online

 

Server 1

 

 

 

 

AEW Dynamite 13 01

 

 

 

 

Server-2

 

 

 

 

watch now

 

 

Uploaded By Site DX-TV.com

 

Complete name : AEW.Dynamite.2021.01.13.720p.WEB.h264-HEEL.mp4
Format : MPEG-4
Format profile : Base Media
Codec ID : isom
File size : 1.63 GiB
Duration : 2 h 0 min
Overall bit rate mode : Variable
Overall bit rate : 1 945 kb/s
Writing application : Lavf58.32.104

AEW Dynamite 13 01

Video
ID : 1
Format : AVC
Format/Info : Advanced Video
Duration : 1 h 59 min
Bit rate : 1 839 kb/s
Nominal bit rate : 2 300 kb/s
Width : 1 280 pixels
Height : 720 pixels
Display aspect ratio : 16:9
Frame rate mode : Constant
Frame rate : 30.000 FPS
Color space : YUV
Chroma subsampling : 4:2:0
Bit depth : 8 bits
Scan type : Progressive
Bits/(Pixel*Frame) : 0.067
Stream size : 1.54 GiB (95%)
Writing library : x264 core 152

AEW Dynamite 13 01

Audio
ID : 2
Format : AAC LC
Format/Info : Advanced Audio Codec Low Complexity
Codec ID : mp4a-40-2
Duration : 2 h 0 min
Bit rate mode : Variable
Bit rate : 96.0 kb/s
Maximum bit rate : 99.0 kb/s
Channel(s) : 2 channels
Channel layout : L R
Sampling rate : 48.0 kHz
Frame rate : 46.875 FPS (1024 SPF)
Compression mode : Lossy
Stream size : 83.5 MiB (5%)
Default : Yes
Alternate group : 1

General
Complete name : C:\DX\WWE\Downloading\AEW.Dynamite.2021.01.13.1080p.WEB.h264-HEEL.mp4
Format : MPEG-4
Format profile : Base Media
Codec ID : isom (isom/iso2/avc1/mp41)
File size : 3.81 GiB
Duration : 2 h 0 min
Overall bit rate : 4 541 kb/s
Writing application : Lavf58.32.104

AEW Dynamite 13  

Video
ID : 1
Format : AVC
Duration : 1 h 59 min
Bit rate : 4 403 kb/s
Nominal bit rate : 4 800 kb/s
Width : 1 920 pixels
Height : 1 080 pixels
Display aspect ratio : 16:9
Frame rate mode : Constant
Frame rate : 30.000 FPS
Color space : YUV
Chroma subsampling : 4:2:0
Bit depth : 8 bits
Scan type : Progressive
Bits/(Pixel*Frame) : 0.071
Stream size : 3.69 GiB (97%)
Writing library : x264 core 152

Audio
ID : 2
Format : AAC LC
Format/Info : Advanced Audio Codec Low Complexity
Codec ID : mp4a-40-2
Duration : 2 h 0 min
Bit rate mode : Constant
Bit rate : 132 kb/s
Channel(s) : 2 channels
Channel layout : L R
Sampling rate : 48.0 kHz
Frame rate : 46.875 FPS (1024 SPF)
Compression mode : Lossy
Stream size : 112 MiB (3%)
Default : Yes
Alternate group : 1

AEW Dynamite 13  

 

https://dx-tv.com/

Leave a Reply

Your email address will not be published. Required fields are marked *

This site uses Akismet to reduce spam. Learn how your comment data is processed.