WWE NXT 13 Jan 2021 Full Show Online DX-TV

WWE NXT 13 Jan 2021 720p HDTV Star DX-TV

WWE NXT 13 Jan 2021

 WWE NXT 13 Jan 2021

 

Download Links with premium High Speed   

 

 

 

nitroflare.com

http://shrt10.com/UVsvtf
http://shrt10.com/LalIJ

 

 

rapidgator.net

http://shrt10.com/ceWIL220l
http://shrt10.com/IIAZNvgM

 

 

uploaded.net

http://shrt10.com/qb09E0F
http://shrt10.com/xpjNRQok7

 

 

uploadgig.com

http://shrt10.com/i7USp
http://shrt10.com/0rN4j1z

 

Watch WWE NXT online

 

Server 1

 

 

 

 

WWE NXT 13 Jan  

 

 

 

 

Server-2

 

 

 

 

watch now

 

 

Uploaded By Site DX-TV.com

 

Complete name : WWE.NXT.2021.01.13.720p.HDTV.x264-Star.mkv
Format : Matroska
Format version : Version 4
File size : 2.58 GiB
Duration : 1 h 29 min
Overall bit rate : 4 127 kb/s

WWE NXT 13 Jan

Video
ID : 1
Format : AVC
Format/Info : Advanced Video
Codec ID : V_MPEG4/ISO/AVC
Duration : 1 h 29 min
Bit rate : 4 000 kb/s
Width : 1 280 pixels
Height : 720 pixels
Display aspect ratio : 16:9
Frame rate mode : Constant
Frame rate : 29.970 (30000/1001) FPS
Color space : YUV
Chroma subsampling : 4:2:0
Bit depth : 8 bits
Scan type : Progressive
Bits/(Pixel*Frame) : 0.145
Stream size : 2.45 GiB (95%)
Forced : No
Color range : Limited
Color primaries : BT.709
Transfer characteristics : BT.709
Matrix coefficients : BT.709

WWE NXT 13 Jan

Audio
ID : 2
Format : AC-3
Format/Info : Audio Coding 3
Commercial name : Dolby Digital
Codec ID : A_AC3
Duration : 1 h 29 min
Bit rate mode : Constant
Bit rate : 128 kb/s
Channel(s) : 2 channels
Channel layout : L R
Sampling rate : 48.0 kHz
Frame rate : 31.250 FPS
Compression mode : Lossy
Delay relative to video : -5 ms
Stream size : 81.9 MiB (3%)
Title : Stereo
Service kind : Complete Main
Default : Yes
Forced : No

WWE NXT 

Complete name : WWE.NXT.2021.01.13.HDTV.x264-Star.mp4
Format : MPEG-4
Format profile : Base Media
File size : 907 MiB
Duration : 1 h 29 min
Overall bit rate : 1 419 kb/s

Video
ID : 1
Format : AVC
Duration : 1 h 29 min
Bit rate : 1 300 kb/s
Width : 720 pixels
Height : 480 pixels
Display aspect ratio : 16:9
Original display aspect rat : 16:9
Frame rate mode : Constant
Frame rate : 29.970 (30000/1001) FPS
Standard : NTSC
Color space : YUV
Chroma subsampling : 4:2:0
Bit depth : 8 bits
Scan type : Progressive
Bits/(Pixel*Frame) : 0.126
Stream size : 830 MiB (92%)
Color range : Limited
Color primaries : BT.709
Transfer characteristics : BT.709
Matrix coefficients : BT.709
Codec configuration box : avc

WWE NXT 

Audio
ID : 2
Format : AAC LC
Format/Info : Advanced Audio Codec
Codec ID : mp4a-40-2
Duration : 1 h 29 min
Bit rate mode : Constant
Bit rate : 111 kb/s
Channel(s) : 2 channels
Channel layout : L R
Sampling rate : 48.0 kHz
Frame rate : 46.875 FPS (1024 SPF)
Compression mode : Lossy
Stream size : 71.3 MiB (8%)
Title : Stereo
Default : Yes
Alternate group : 1

WWE NXT 13 Jan  

 

https://dx-tv.com/

Leave a Reply

Your email address will not be published. Required fields are marked *

This site uses Akismet to reduce spam. Learn how your comment data is processed.