AEW DARK 28 01 2020 1080p Online

AEW DARK 28 01 2020 1080p Online DX-TV

 

 

WWE RAW

 

 

 

 

dx-tv.com

 

 

 

 

AEW DARK 28 01 2020 1080p Online

 

 

 

 

 

Complete name : AEW.DARK.28.01.2020.1080p.WEB-DL.h264-TAR.mp4
Format : MPEG-4
Format profile : Base Media
Codec ID : isom
File size : 1.06 GiB
Duration : 32 min 35 s
Overall bit rate : 4 652 kb/s
Writing application : Lavf58.35.104

Video
ID : 1
Format : AVC
Duration : 32 min 35 s
Bit rate : 4 517 kb/s
Width : 1 920 pixels
Height : 1 080 pixels
Display aspect ratio : 16:9
Frame rate mode : Constant
Frame rate : 29.970 (30000/1001) FPS
Color space : YUV
Chroma subsampling : 4:2:0
Bit depth : 8 bits
Scan type : Progressive
Bits/(Pixel*Frame) : 0.073
Stream size : 1.03 GiB (97%)
Color range : Limited
Color primaries : BT.709
Transfer characteristics : BT.709
Matrix coefficients : BT.709
Codec configuration box : avcC

Audio
ID : 2
Format : AAC LC
Format/Info : Advanced Audio Codec Low Complexity
Codec ID : mp4a-40-2
Duration : 32 min 35 s
Bit rate mode : Constant
Bit rate : 128 kb/s
Channel(s) : 2 channels
Channel layout : L R
Sampling rate : 44.1 kHz
Frame rate : 43.066 FPS (1024 SPF)
Compression mode : Lossy
Stream size : 29.8 MiB (3%)
Language : English
Default : Yes
Alternate group : 1

 

 

Watch online

 

 

Server 1

 

 

 

 

 


 

 

Server 2

 

 

 


 

 

 

 

Server–3

 

 


 

 

 

 

 

AEW DARK 28 01 2020 1080p Online

 

 

 

Uploaded By Site DX-TV.com

 

 

 

 

 

1fichier.com 

 

 

dailyuploads.net

 

 

DDL.to

 

 

dl.free.fr

 

 

earn4files.com

 

 

filerio.in

 

 

katfile.com

 

 

rockfile.co

 

 

Ubloadbank.com

 

 

 

Download with premium account Links 

 

 

nitroflare.com

 

 

rapidgator.net

 

 

uploaded.net

 

 

 

 

 

 

 

 

 

 62 total views,  2 views today

%d bloggers like this: