Watch iMPACT Wrestling 2020 01 28 720p Online

Watch iMPACT Wrestling 2020 01 28 720p Online NWCHD DX-TV

 

 

iMPACT Wrestling

 

 

 

 

dx-tv.com

 

 

 

 

Watch iMPACT Wrestling 2020 01 28 720p Online

 

 

 

 

 

Complete name : iMPACT.Wrestling.2020.01.28.720p.HDTV.x264-NWCHD.mp4
Format : MPEG-4
Format profile : Base Media
Codec ID : isom
File size : 2.79 GiB
Duration : 1 h 25 min
Overall bit rate : 4 654 kb/s
Writing application : Lavf58.27.103

Video
ID : 1
Format : AVC
Duration : 1 h 25 min
Bit rate : 4 500 kb/s
Width : 1 280 pixels
Height : 720 pixels
Display aspect ratio : 16:9
Frame rate mode : Variable
Frame rate : 29.970 (30000/1001) FPS
Minimum frame rate : 18.564 FPS
Maximum frame rate : 29.970 FPS
Color space : YUV
Chroma subsampling : 4:2:0
Bit depth : 8 bits
Scan type : Progressive
Bits/(Pixel*Frame) : 0.163
Stream size : 2.67 GiB (96%)
Color primaries : BT.709
Transfer characteristics : BT.709
Matrix coefficients : BT.709
Codec configuration box : avcC

Audio
ID : 2
Format : AAC LC
Format/Info : Advanced Audio Codec Low Complexity
Codec ID : mp4a-40-2
Duration : 1 h 25 min
Bit rate mode : Constant
Bit rate : 192 kb/s
Channel(s) : 2 channels
Channel layout : L R
Sampling rate : 48.0 kHz
Frame rate : 46.875 FPS (1024 SPF)
Compression mode : Lossy
Stream size : 118 MiB (4%)
Title : Stereo
Default : Yes
Alternate group : 1

 

Name – iMPACT.Wrestling.2020.01.28.720p.HDTV.x264-NWCHD
Released – 01.28.2020
Aired – 01.28.2020
Size – 2.78 GB
Source – AXS TV HD
Container – MP4
Resolution – 1280 x 720 (16:9) @ 29.970 FPS
Video – x264 @ 4500 KBPS
Audio – AAC @ 192 KBPS
Length – 01:25:42 MIN

 

Watch online

 

Server 1

 

 

 

 

 

 

 

 

 

 

 

Server 2

 

 

 

 

 

 

 

 

 

 

Server–3

 

 

 

 

 

Watch iMPACT Wrestling 2020 01 28 720p Online

 

 

 

Uploaded By Site DX-TV.com

 

 

 

 

 

1fichier.com 

https://shrt10.com/E57RBw
https://shrt10.com/LOz7O53r5
https://shrt10.com/QClD0u

 

dailyuploads.net

https://shrt10.com/eKQ4d08
https://shrt10.com/2C6kG8W12
https://shrt10.com/Gpg2N

 

DDL.to

https://shrt10.com/NdTc42eyj
https://shrt10.com/JJclbt
https://shrt10.com/zlJqj

 

dl.free.fr

 

https://shrt10.com/FLwEN
https://shrt10.com/2o7KOhc5
https://shrt10.com/K1o7x

 

earn4files.com

https://shrt10.com/RwiEeyPss
https://shrt10.com/qQmYBBGI
https://shrt10.com/sUsDWg

 

filerio.in

 

https://shrt10.com/xhMFQtZw
https://shrt10.com/vc0L7z7W
https://shrt10.com/933mEV

katfile.com

https://shrt10.com/rqfXkxkm
https://shrt10.com/1bzE2E67i
https://shrt10.com/ohzKRqEj

 

rockfile.co

https://shrt10.com/6uwtg1XR
https://shrt10.com/2nE7mDQ
https://shrt10.com/ESG8sjs

 

Ubloadbank.com

 

https://shrt10.com/tWAuRom
https://shrt10.com/jzZdzm
https://shrt10.com/kQ4PSOIiL

 

Download with premium account Links 

 

 

nitroflare.com

 

 

rapidgator.net

 

 

uploaded.net