AEW All Out 2020 Free Online Full Show

Watch AEW All Out 2020 Free Online Full Show DX-TV

 

AEW All Out 2020 Free Online

 

 AEW All Out 2020 Free Online

 

AEW All Out 2020 Free Online Full Show

 

 

 

[su_expand more_text=”Show More Info” less_text=”Close all Info” height=”30″ text_color=”#000000″ link_color=”#e25f8b” link_style=”button” more_icon=”icon: arrow-down” less_icon=”icon: arrow-up”]

 

Complete name : AEW.All.Out.2020.PPV.WEB.h264-HEEL.mp4
Format : MPEG-4
Format profile : Base Media
Codec ID : isom
File size : 3.09 GiB
Duration : 3 h 48 min
Overall bit rate mode : Constant
Overall bit rate : 1 935 kb/s
Writing application : Lavf58

AEW All Out 2020 Free Online

Video
ID : 1
Format : AVC
Codec ID : avc1
Duration : 3 h 48 min
Bit rate mode : Constant
Bit rate : 1 800 kb/s
Width : 848 pixels
Height : 480 pixels
Display aspect ratio : 16:9
rate : 29.970 (30000/1001) FPS
Color space : YUV
Chroma : 4:2:0
Bit depth : 8 bits
Scan type : Progressive
Bits/(Pixel*Frame) : 0.148
Stream size : 2.88 GiB (93%)
Codec configuration box : avcC

AEW All Out 2020 Free Online

Audio
ID : 2
Format : AAC LC
Format/Info : Advanced
Codec ID : mp4a-40-2
Duration : 3 h 48 min
Bit rate mode : Constant
Bit rate : 126 kb/s
Channel(s) : 2 channels AEW All Out 2020 Free Online
Channel layout : L R
Sampling rate : 44.1 kHz
Frame rate : 43.066 FPS (1024 SPF)
Compression mode : Lossy
Stream size : 206 MiB (6%)
Default : Yes
Alternate group : 1

AEW All Out 2020 Free Online

And for Page and Omega, yes they have been champions for 225-plus days and have successfully defended their championship on nine occasions. They have beaten SCU, The Young Bucks, Dark Order, Jurassic Express, Private Party, Best Friends, Natural Nightmares, Sabian & Havoc, and the Lucha Brothers. AEW All Out 2020 Free Online

But in all that, even at their most awkward moments, never have the champions felt so broken as they are right now. Think of tag teams as a married couple; they require trust, honesty, respect, loyalty, and commitment. They require that feeling of knowing that you can reach out at any time, without even looking, and be confident a hand will reach back in response.  All Out 2020 Free Online

AEW All Out 2020 Free Online

Clearly all of that is gone with the AEW World Tag Team Champions; there is no reaching back, no one to help pick up the pieces, no partnership or commitment. There is just Adam Page and Kenny Omega and they happen to be called champions at this moment in time. That moment persisting past Saturday night is entirely dependent on if they can get back on the same page, even for twenty minutes, to add FTR as their tenth successful title defense. If not, fans will be hearing the words NEW WORLD TAG TEAM CHAMPIONS in short order come ALL OUT 2020.  All Out 2020 Free Online

 

 All Out 2020 Free Online Full Show

 

 

[/su_expand]

 

 

 

Watch online

 

 

[su_expand more_text=”Open Videos Online” less_text=”Close Videos” height=”0″ text_color=”#0859fe” link_color=”#a74a69″ link_style=”button” more_icon=”icon: play” less_icon=”icon: stop”]

 

 

Server 1

 

 

 

 

watch now

 

 

 

 

Server-2

 

 

 

watch now

 

 

 

 

Server-3

 

 

 

AEW All Out 2020 Free Online

 

 

 

[/su_expand]
 

 

Uploaded By Site DX-TV.com

 

 

 

Download Links with High Speed   

 

 

[su_expand more_text=”Open Download Links” less_text=”Close all Links” height=”0″ text_color=”#4b9a3e” link_color=”#1b3fa8″ link_style=”button” more_icon=”icon: link” less_icon=”icon: unlink”]
 

Keep2Share

 

 

 

nitroflare.com

 

 

 

rapidgator.net

 

 

 

uploadgig.com

 

 

[/su_expand]
dx-tv.com

 

urlfree.net

You May Also Like