AEW All Out 2020 1080p Download Full Show

Watch AEW All Out 2020 1080p Download Full Show DX-TV

 

AEW All Out 2020 1080p Download Full Show

 

 AEW All Out 2020 1080p Download Full Show
 


 

 

AEW All Out 2020 1080p Download Full Show

 

 

 

[su_expand more_text=”Show More Info” less_text=”Close all Info” height=”30″ text_color=”#000000″ link_color=”#e25f8b” link_style=”button” more_icon=”icon: arrow-down” less_icon=”icon: arrow-up”]

 

Complete name : AEW.All.Out.2020.1080p.WEB.x264-DaShield.mp4
Format : MPEG-4
Format profile : Base Media
Codec ID : isom
File size : 6.53 GiB
Duration : 3 h 48 min
bit rate mode : Variable
Overall bit rate : 4 089 kb/s
Writing application : Lavf53.24.2

AEW All Out 2020 1080p Download Full Show

Video
ID : 1
Format : AVC
Duration : 3 h 48 min
Bit rate : 3 949 kb/s
Width : 1 920 pixels
Height : 1 080 pixels
Display aspect ratio : 16:9
Frame rate mode : Variable
Frame rate : 30.000 FPS
Color space : YUV
Chroma subsampling : 4:2:0
Bit depth : 8 bits
Scan type : Progressive
Bits/(Pixel*Frame) : 0.063
Stream size : 6.30 GiB (97%)
Codec configuration box : avcC

 All Out 2020 1080p Download Full Show

Audio
ID : 2
Format : AAC LC
Format/Info : Advanced Audio
Codec ID : mp4a-40-2
Duration : 3 h 48 min
Bit rate mode : Variable
Bit rate : 129 kb/s
Maximum bit rate : 179 kb/s
Channel(s) : 2 channels
Channel layout : L R
Sampling rate : 44.1 kHz
Frame rate : 43.066 FPS (1024 SPF)
Compression mode : Lossy
Stream size : 211 MiB (3%)
Default : Yes
Alternate group : 1

 All Out 2020 1080p Download Full Show

 

Those are the words of Chris Jericho from Wednesday night, and they sum up just why the former AEW World Champion has taken such umbrage with “Freshly Squeezed” Orange Cassidy. Despite the fight OC has given the whole Inner Circle, despite the pinfall victory he holds over the self-proclaimed “DemoGod”, Chris Jericho still believes Orange Cassidy does not belong in All Elite Wrestling. Those words above illustrate just where Jericho feels Cassidy fits in wrestling, and it is probably working for hot dogs and handshakes. AEW All Out 2020 1080p Download Full Show

Or perhaps all of this bluster, the violence perpetrated on “Freshly Squeezed”, the verbal diarrhea flung his way, perhaps it is Jericho raging against the dying of the light. Perhaps it is a thirty year veteran clinging to what, and who, he believes fits into the equation. Perhaps he’s become what he once hated in the veterans who came before him. Or maybe he’s just pissed off that Orange Cassidy is just one of two men who have beaten him in a singles match.

All Out 2020 1080p Full Show

Whatever rational lies in the heart and soul of Jericho, whatever it is about OC that gets the goat of a man many consider the G.O.A.T, it has brought us to this Mimosa Mayhem match concocted by Chris Jericho. Given that we have seen Orange Cassidy give The Inner Circle an OJ bath, that Jericho has happily used his Bubbly as an instrument of disrespect on any opponent, fits perfectly that one of these men could end up in a vat of Mimosa by night’s end.

 

AEW All Out 2020 1080p Download Full Show

 

 

[/su_expand]

 

 

 

Watch online

 

 

[su_expand more_text=”Open Videos Online” less_text=”Close Videos” height=”0″ text_color=”#0859fe” link_color=”#a74a69″ link_style=”button” more_icon=”icon: play” less_icon=”icon: stop”]

 

 

Server 1

 

 

 

 

watch now

 

 

 

 

Server-2

 

 

 

watch now

 

 

 

 

Server-3

 

 

 

AEW All Out 2020 1080p Download Full Show

 

 

 

[/su_expand]
 

 

 

Uploaded By Site DX-TV.com

 

 

 

Download Links with High Speed   

 

 

[su_expand more_text=”Open Download Links” less_text=”Close all Links” height=”0″ text_color=”#4b9a3e” link_color=”#1b3fa8″ link_style=”button” more_icon=”icon: link” less_icon=”icon: unlink”]
 

 

Keep2Share

 

 

 

nitroflare.com

 

 

 

rapidgator.net

 

 

 

uploadgig.com

 

 

[/su_expand]
 

dx-tv.com

 

urlfree.net