AAW United We Stand 2021 July 09 Online Free

AAW United We Stand 2021 July 09 Online Free Replay DX-TV

AAW United We Stand

AAW United We Stand

 

 

 

Download Links with premium High Speed


 

Dopapk

 

 

 

 

Nitroflare

 

 

 

 

Rapidgator

 

 

 

 

Uploaded

 

 

 

 

Watch online

 

Server 1

 

 

 

 

AAW United We Stand

 

 

 

 

Server-2

 

 

 

 

watch now

 

 

 

|Server-3

 

 

 

 

watch now

 

 

Uploaded By Site DX-TV.com

 

 

Complete name : AAW United We Stand.mp4
Format : MPEG-4
Format profile : Base Media
Codec ID : isom
File size : 2.90 GiB
Duration : 3 h 24 min
Overall bit rate : 2 031 kb/s

Video
ID : 1
Format : AVC
Format/Info : Advanced Video
Duration : 3 h 24 min
Source duration : 3 h 24 min
Bit rate : 1 927 kb/s
Width : 1 280 pixels
Height : 720 pixels
Display aspect ratio : 16:9
Frame rate mode : Variable
Frame rate : 24.000 FPS
Minimum frame rate : 14.706 FPS
Maximum frame rate : 90 000.000 FPS
Color space : YUV
Chroma subsampling : 4:2:0
Bit depth : 8 bits
Scan type : Progressive
Bits/(Pixel*Frame) : 0.087
Stream size : 2.75 GiB (95%)
mdhd_Duration : 12252563
Codec configuration box : avc

AAW United We Stand

Audio
ID : 2
Format : AAC LC
Format/Info : Advanced Audio
Codec ID : mp4a-40-2
Duration : 3 h 24 min
Bit rate mode : Constant
Bit rate : 93.6 kb/s
Channel(s) : 2 channels
Channel layout : L R
Sampling rate : 48.0 kHz
Frame rate : 46.875 FPS
Compression mode : Lossy
Stream size : 137 MiB (5%)
Default : Yes
Alternate group : 1

AAW United We Stand

 

[/spoiler]

Complete name : AAW United We Stand.mp4
Format : MPEG-4
Format profile : Base Media
Codec ID : isom
File size : 2.90 GiB
Duration : 3 h 24 min
Overall bit rate : 2 031 kb/s

Video
ID : 1
Format : AVC
Format/Info : Advanced Video
Duration : 3 h 24 min
Source duration : 3 h 24 min
Bit rate : 1 927 kb/s
Width : 1 280 pixels
Height : 720 pixels
Display aspect ratio : 16:9
Frame rate mode : Variable
Frame rate : 24.000 FPS
Minimum frame rate : 14.706 FPS
Maximum frame rate : 90 000.000 FPS
Color space : YUV
Chroma subsampling : 4:2:0
Bit depth : 8 bits
Scan type : Progressive
Bits/(Pixel*Frame) : 0.087
Stream size : 2.75 GiB (95%)
mdhd_Duration : 12252563
Codec configuration box : avc

AAW United We Stand

Audio
ID : 2
Format : AAC LC
Format/Info : Advanced Audio
Codec ID : mp4a-40-2
Duration : 3 h 24 min
Bit rate mode : Constant
Bit rate : 93.6 kb/s
Channel(s) : 2 channels
Channel layout : L R
Sampling rate : 48.0 kHz
Frame rate : 46.875 FPS
Compression mode : Lossy
Stream size : 137 MiB (5%)
Default : Yes
Alternate group : 1

AAW United We Stand

 

[/spoiler]

Complete name : AAW United We Stand.mp4
Format : MPEG-4
Format profile : Base Media
Codec ID : isom
File size : 2.90 GiB
Duration : 3 h 24 min
Overall bit rate : 2 031 kb/s

Video
ID : 1
Format : AVC
Format/Info : Advanced Video
Duration : 3 h 24 min
Source duration : 3 h 24 min
Bit rate : 1 927 kb/s
Width : 1 280 pixels
Height : 720 pixels
Display aspect ratio : 16:9
Frame rate mode : Variable
Frame rate : 24.000 FPS
Minimum frame rate : 14.706 FPS
Maximum frame rate : 90 000.000 FPS
Color space : YUV
Chroma subsampling : 4:2:0
Bit depth : 8 bits
Scan type : Progressive
Bits/(Pixel*Frame) : 0.087
Stream size : 2.75 GiB (95%)
mdhd_Duration : 12252563
Codec configuration box : avc

AAW United We Stand

Audio
ID : 2
Format : AAC LC
Format/Info : Advanced Audio
Codec ID : mp4a-40-2
Duration : 3 h 24 min
Bit rate mode : Constant
Bit rate : 93.6 kb/s
Channel(s) : 2 channels
Channel layout : L R
Sampling rate : 48.0 kHz
Frame rate : 46.875 FPS
Compression mode : Lossy
Stream size : 137 MiB (5%)
Default : Yes
Alternate group : 1

AAW United We Stand

 

[/spoiler]

Complete name : AAW United We Stand.mp4
Format : MPEG-4
Format profile : Base Media
Codec ID : isom
File size : 2.90 GiB
Duration : 3 h 24 min
Overall bit rate : 2 031 kb/s

Video
ID : 1
Format : AVC
Format/Info : Advanced Video
Duration : 3 h 24 min
Source duration : 3 h 24 min
Bit rate : 1 927 kb/s
Width : 1 280 pixels
Height : 720 pixels
Display aspect ratio : 16:9
Frame rate mode : Variable
Frame rate : 24.000 FPS
Minimum frame rate : 14.706 FPS
Maximum frame rate : 90 000.000 FPS
Color space : YUV
Chroma subsampling : 4:2:0
Bit depth : 8 bits
Scan type : Progressive
Bits/(Pixel*Frame) : 0.087
Stream size : 2.75 GiB (95%)
mdhd_Duration : 12252563
Codec configuration box : avc

AAW United We Stand

Audio
ID : 2
Format : AAC LC
Format/Info : Advanced Audio
Codec ID : mp4a-40-2
Duration : 3 h 24 min
Bit rate mode : Constant
Bit rate : 93.6 kb/s
Channel(s) : 2 channels
Channel layout : L R
Sampling rate : 48.0 kHz
Frame rate : 46.875 FPS
Compression mode : Lossy
Stream size : 137 MiB (5%)
Default : Yes
Alternate group : 1

AAW United We Stand

 

[/spoiler]

Complete name : AAW United We Stand.mp4
Format : MPEG-4
Format profile : Base Media
Codec ID : isom
File size : 2.90 GiB
Duration : 3 h 24 min
Overall bit rate : 2 031 kb/s

Video
ID : 1
Format : AVC
Format/Info : Advanced Video
Duration : 3 h 24 min
Source duration : 3 h 24 min
Bit rate : 1 927 kb/s
Width : 1 280 pixels
Height : 720 pixels
Display aspect ratio : 16:9
Frame rate mode : Variable
Frame rate : 24.000 FPS
Minimum frame rate : 14.706 FPS
Maximum frame rate : 90 000.000 FPS
Color space : YUV
Chroma subsampling : 4:2:0
Bit depth : 8 bits
Scan type : Progressive
Bits/(Pixel*Frame) : 0.087
Stream size : 2.75 GiB (95%)
mdhd_Duration : 12252563
Codec configuration box : avc

AAW United We Stand

Audio
ID : 2
Format : AAC LC
Format/Info : Advanced Audio
Codec ID : mp4a-40-2
Duration : 3 h 24 min
Bit rate mode : Constant
Bit rate : 93.6 kb/s
Channel(s) : 2 channels
Channel layout : L R
Sampling rate : 48.0 kHz
Frame rate : 46.875 FPS
Compression mode : Lossy
Stream size : 137 MiB (5%)
Default : Yes
Alternate group : 1

AAW United We Stand

 

[/spoiler]

Complete name : AAW United We Stand.mp4
Format : MPEG-4
Format profile : Base Media
Codec ID : isom
File size : 2.90 GiB
Duration : 3 h 24 min
Overall bit rate : 2 031 kb/s

Video
ID : 1
Format : AVC
Format/Info : Advanced Video
Duration : 3 h 24 min
Source duration : 3 h 24 min
Bit rate : 1 927 kb/s
Width : 1 280 pixels
Height : 720 pixels
Display aspect ratio : 16:9
Frame rate mode : Variable
Frame rate : 24.000 FPS
Minimum frame rate : 14.706 FPS
Maximum frame rate : 90 000.000 FPS
Color space : YUV
Chroma subsampling : 4:2:0
Bit depth : 8 bits
Scan type : Progressive
Bits/(Pixel*Frame) : 0.087
Stream size : 2.75 GiB (95%)
mdhd_Duration : 12252563
Codec configuration box : avc

AAW United We Stand

Audio
ID : 2
Format : AAC LC
Format/Info : Advanced Audio
Codec ID : mp4a-40-2
Duration : 3 h 24 min
Bit rate mode : Constant
Bit rate : 93.6 kb/s
Channel(s) : 2 channels
Channel layout : L R
Sampling rate : 48.0 kHz
Frame rate : 46.875 FPS
Compression mode : Lossy
Stream size : 137 MiB (5%)
Default : Yes
Alternate group : 1

AAW United We Stand

 

[/spoiler]

Complete name : AAW United We Stand.mp4
Format : MPEG-4
Format profile : Base Media
Codec ID : isom
File size : 2.90 GiB
Duration : 3 h 24 min
Overall bit rate : 2 031 kb/s

Video
ID : 1
Format : AVC
Format/Info : Advanced Video
Duration : 3 h 24 min
Source duration : 3 h 24 min
Bit rate : 1 927 kb/s
Width : 1 280 pixels
Height : 720 pixels
Display aspect ratio : 16:9
Frame rate mode : Variable
Frame rate : 24.000 FPS
Minimum frame rate : 14.706 FPS
Maximum frame rate : 90 000.000 FPS
Color space : YUV
Chroma subsampling : 4:2:0
Bit depth : 8 bits
Scan type : Progressive
Bits/(Pixel*Frame) : 0.087
Stream size : 2.75 GiB (95%)
mdhd_Duration : 12252563
Codec configuration box : avc

AAW United We Stand

Audio
ID : 2
Format : AAC LC
Format/Info : Advanced Audio
Codec ID : mp4a-40-2
Duration : 3 h 24 min
Bit rate mode : Constant
Bit rate : 93.6 kb/s
Channel(s) : 2 channels
Channel layout : L R
Sampling rate : 48.0 kHz
Frame rate : 46.875 FPS
Compression mode : Lossy
Stream size : 137 MiB (5%)
Default : Yes
Alternate group : 1

AAW United We Stand

 

[/spoiler]

Complete name : AAW United We Stand.mp4
Format : MPEG-4
Format profile : Base Media
Codec ID : isom
File size : 2.90 GiB
Duration : 3 h 24 min
Overall bit rate : 2 031 kb/s

Video
ID : 1
Format : AVC
Format/Info : Advanced Video
Duration : 3 h 24 min
Source duration : 3 h 24 min
Bit rate : 1 927 kb/s
Width : 1 280 pixels
Height : 720 pixels
Display aspect ratio : 16:9
Frame rate mode : Variable
Frame rate : 24.000 FPS
Minimum frame rate : 14.706 FPS
Maximum frame rate : 90 000.000 FPS
Color space : YUV
Chroma subsampling : 4:2:0
Bit depth : 8 bits
Scan type : Progressive
Bits/(Pixel*Frame) : 0.087
Stream size : 2.75 GiB (95%)
mdhd_Duration : 12252563
Codec configuration box : avc

AAW United We Stand

Audio
ID : 2
Format : AAC LC
Format/Info : Advanced Audio
Codec ID : mp4a-40-2
Duration : 3 h 24 min
Bit rate mode : Constant
Bit rate : 93.6 kb/s
Channel(s) : 2 channels
Channel layout : L R
Sampling rate : 48.0 kHz
Frame rate : 46.875 FPS
Compression mode : Lossy
Stream size : 137 MiB (5%)
Default : Yes
Alternate group : 1

AAW United We Stand

 

[/spoiler]

Complete name : AAW United We Stand.mp4
Format : MPEG-4
Format profile : Base Media
Codec ID : isom
File size : 2.90 GiB
Duration : 3 h 24 min
Overall bit rate : 2 031 kb/s

Video
ID : 1
Format : AVC
Format/Info : Advanced Video
Duration : 3 h 24 min
Source duration : 3 h 24 min
Bit rate : 1 927 kb/s
Width : 1 280 pixels
Height : 720 pixels
Display aspect ratio : 16:9
Frame rate mode : Variable
Frame rate : 24.000 FPS
Minimum frame rate : 14.706 FPS
Maximum frame rate : 90 000.000 FPS
Color space : YUV
Chroma subsampling : 4:2:0
Bit depth : 8 bits
Scan type : Progressive
Bits/(Pixel*Frame) : 0.087
Stream size : 2.75 GiB (95%)
mdhd_Duration : 12252563
Codec configuration box : avc

AAW United We Stand

Audio
ID : 2
Format : AAC LC
Format/Info : Advanced Audio
Codec ID : mp4a-40-2
Duration : 3 h 24 min
Bit rate mode : Constant
Bit rate : 93.6 kb/s
Channel(s) : 2 channels
Channel layout : L R
Sampling rate : 48.0 kHz
Frame rate : 46.875 FPS
Compression mode : Lossy
Stream size : 137 MiB (5%)
Default : Yes
Alternate group : 1

AAW United We Stand

 

[/spoiler]

Complete name : AAW United We Stand.mp4
Format : MPEG-4
Format profile : Base Media
Codec ID : isom
File size : 2.90 GiB
Duration : 3 h 24 min
Overall bit rate : 2 031 kb/s

Video
ID : 1
Format : AVC
Format/Info : Advanced Video
Duration : 3 h 24 min
Source duration : 3 h 24 min
Bit rate : 1 927 kb/s
Width : 1 280 pixels
Height : 720 pixels
Display aspect ratio : 16:9
Frame rate mode : Variable
Frame rate : 24.000 FPS
Minimum frame rate : 14.706 FPS
Maximum frame rate : 90 000.000 FPS
Color space : YUV
Chroma subsampling : 4:2:0
Bit depth : 8 bits
Scan type : Progressive
Bits/(Pixel*Frame) : 0.087
Stream size : 2.75 GiB (95%)
mdhd_Duration : 12252563
Codec configuration box : avc

AAW United We Stand

Audio
ID : 2
Format : AAC LC
Format/Info : Advanced Audio
Codec ID : mp4a-40-2
Duration : 3 h 24 min
Bit rate mode : Constant
Bit rate : 93.6 kb/s
Channel(s) : 2 channels
Channel layout : L R
Sampling rate : 48.0 kHz
Frame rate : 46.875 FPS
Compression mode : Lossy
Stream size : 137 MiB (5%)
Default : Yes
Alternate group : 1

AAW United We Stand

 

[/spoiler]

Complete name : AAW United We Stand.mp4
Format : MPEG-4
Format profile : Base Media
Codec ID : isom
File size : 2.90 GiB
Duration : 3 h 24 min
Overall bit rate : 2 031 kb/s

Video
ID : 1
Format : AVC
Format/Info : Advanced Video
Duration : 3 h 24 min
Source duration : 3 h 24 min
Bit rate : 1 927 kb/s
Width : 1 280 pixels
Height : 720 pixels
Display aspect ratio : 16:9
Frame rate mode : Variable
Frame rate : 24.000 FPS
Minimum frame rate : 14.706 FPS
Maximum frame rate : 90 000.000 FPS
Color space : YUV
Chroma subsampling : 4:2:0
Bit depth : 8 bits
Scan type : Progressive
Bits/(Pixel*Frame) : 0.087
Stream size : 2.75 GiB (95%)
mdhd_Duration : 12252563
Codec configuration box : avc

AAW United We Stand

Audio
ID : 2
Format : AAC LC
Format/Info : Advanced Audio
Codec ID : mp4a-40-2
Duration : 3 h 24 min
Bit rate mode : Constant
Bit rate : 93.6 kb/s
Channel(s) : 2 channels
Channel layout : L R
Sampling rate : 48.0 kHz
Frame rate : 46.875 FPS
Compression mode : Lossy
Stream size : 137 MiB (5%)
Default : Yes
Alternate group : 1

AAW United We Stand

 

[/spoiler]

Complete name : AAW United We Stand.mp4
Format : MPEG-4
Format profile : Base Media
Codec ID : isom
File size : 2.90 GiB
Duration : 3 h 24 min
Overall bit rate : 2 031 kb/s

Video
ID : 1
Format : AVC
Format/Info : Advanced Video
Duration : 3 h 24 min
Source duration : 3 h 24 min
Bit rate : 1 927 kb/s
Width : 1 280 pixels
Height : 720 pixels
Display aspect ratio : 16:9
Frame rate mode : Variable
Frame rate : 24.000 FPS
Minimum frame rate : 14.706 FPS
Maximum frame rate : 90 000.000 FPS
Color space : YUV
Chroma subsampling : 4:2:0
Bit depth : 8 bits
Scan type : Progressive
Bits/(Pixel*Frame) : 0.087
Stream size : 2.75 GiB (95%)
mdhd_Duration : 12252563
Codec configuration box : avc

AAW United We Stand

Audio
ID : 2
Format : AAC LC
Format/Info : Advanced Audio
Codec ID : mp4a-40-2
Duration : 3 h 24 min
Bit rate mode : Constant
Bit rate : 93.6 kb/s
Channel(s) : 2 channels
Channel layout : L R
Sampling rate : 48.0 kHz
Frame rate : 46.875 FPS
Compression mode : Lossy
Stream size : 137 MiB (5%)
Default : Yes
Alternate group : 1

AAW United We Stand

 

[/spoiler]

Complete name : AAW United We Stand.mp4
Format : MPEG-4
Format profile : Base Media
Codec ID : isom
File size : 2.90 GiB
Duration : 3 h 24 min
Overall bit rate : 2 031 kb/s

Video
ID : 1
Format : AVC
Format/Info : Advanced Video
Duration : 3 h 24 min
Source duration : 3 h 24 min
Bit rate : 1 927 kb/s
Width : 1 280 pixels
Height : 720 pixels
Display aspect ratio : 16:9
Frame rate mode : Variable
Frame rate : 24.000 FPS
Minimum frame rate : 14.706 FPS
Maximum frame rate : 90 000.000 FPS
Color space : YUV
Chroma subsampling : 4:2:0
Bit depth : 8 bits
Scan type : Progressive
Bits/(Pixel*Frame) : 0.087
Stream size : 2.75 GiB (95%)
mdhd_Duration : 12252563
Codec configuration box : avc

AAW United We Stand

Audio
ID : 2
Format : AAC LC
Format/Info : Advanced Audio
Codec ID : mp4a-40-2
Duration : 3 h 24 min
Bit rate mode : Constant
Bit rate : 93.6 kb/s
Channel(s) : 2 channels
Channel layout : L R
Sampling rate : 48.0 kHz
Frame rate : 46.875 FPS
Compression mode : Lossy
Stream size : 137 MiB (5%)
Default : Yes
Alternate group : 1

AAW United We Stand

 

[/spoiler]

Complete name : AAW United We Stand.mp4
Format : MPEG-4
Format profile : Base Media
Codec ID : isom
File size : 2.90 GiB
Duration : 3 h 24 min
Overall bit rate : 2 031 kb/s

Video
ID : 1
Format : AVC
Format/Info : Advanced Video
Duration : 3 h 24 min
Source duration : 3 h 24 min
Bit rate : 1 927 kb/s
Width : 1 280 pixels
Height : 720 pixels
Display aspect ratio : 16:9
Frame rate mode : Variable
Frame rate : 24.000 FPS
Minimum frame rate : 14.706 FPS
Maximum frame rate : 90 000.000 FPS
Color space : YUV
Chroma subsampling : 4:2:0
Bit depth : 8 bits
Scan type : Progressive
Bits/(Pixel*Frame) : 0.087
Stream size : 2.75 GiB (95%)
mdhd_Duration : 12252563
Codec configuration box : avc

AAW United We Stand

Audio
ID : 2
Format : AAC LC
Format/Info : Advanced Audio
Codec ID : mp4a-40-2
Duration : 3 h 24 min
Bit rate mode : Constant
Bit rate : 93.6 kb/s
Channel(s) : 2 channels
Channel layout : L R
Sampling rate : 48.0 kHz
Frame rate : 46.875 FPS
Compression mode : Lossy
Stream size : 137 MiB (5%)
Default : Yes
Alternate group : 1

AAW United We Stand

 

[/spoiler]

Complete name : AAW United We Stand.mp4
Format : MPEG-4
Format profile : Base Media
Codec ID : isom
File size : 2.90 GiB
Duration : 3 h 24 min
Overall bit rate : 2 031 kb/s

Video
ID : 1
Format : AVC
Format/Info : Advanced Video
Duration : 3 h 24 min
Source duration : 3 h 24 min
Bit rate : 1 927 kb/s
Width : 1 280 pixels
Height : 720 pixels
Display aspect ratio : 16:9
Frame rate mode : Variable
Frame rate : 24.000 FPS
Minimum frame rate : 14.706 FPS
Maximum frame rate : 90 000.000 FPS
Color space : YUV
Chroma subsampling : 4:2:0
Bit depth : 8 bits
Scan type : Progressive
Bits/(Pixel*Frame) : 0.087
Stream size : 2.75 GiB (95%)
mdhd_Duration : 12252563
Codec configuration box : avc

AAW United We Stand

Audio
ID : 2
Format : AAC LC
Format/Info : Advanced Audio
Codec ID : mp4a-40-2
Duration : 3 h 24 min
Bit rate mode : Constant
Bit rate : 93.6 kb/s
Channel(s) : 2 channels
Channel layout : L R
Sampling rate : 48.0 kHz
Frame rate : 46.875 FPS
Compression mode : Lossy
Stream size : 137 MiB (5%)
Default : Yes
Alternate group : 1

AAW United We Stand

 

[/spoiler]

Complete name : AAW United We Stand.mp4
Format : MPEG-4
Format profile : Base Media
Codec ID : isom
File size : 2.90 GiB
Duration : 3 h 24 min
Overall bit rate : 2 031 kb/s

Video
ID : 1
Format : AVC
Format/Info : Advanced Video
Duration : 3 h 24 min
Source duration : 3 h 24 min
Bit rate : 1 927 kb/s
Width : 1 280 pixels
Height : 720 pixels
Display aspect ratio : 16:9
Frame rate mode : Variable
Frame rate : 24.000 FPS
Minimum frame rate : 14.706 FPS
Maximum frame rate : 90 000.000 FPS
Color space : YUV
Chroma subsampling : 4:2:0
Bit depth : 8 bits
Scan type : Progressive
Bits/(Pixel*Frame) : 0.087
Stream size : 2.75 GiB (95%)
mdhd_Duration : 12252563
Codec configuration box : avc

AAW United We Stand

Audio
ID : 2
Format : AAC LC
Format/Info : Advanced Audio
Codec ID : mp4a-40-2
Duration : 3 h 24 min
Bit rate mode : Constant
Bit rate : 93.6 kb/s
Channel(s) : 2 channels
Channel layout : L R
Sampling rate : 48.0 kHz
Frame rate : 46.875 FPS
Compression mode : Lossy
Stream size : 137 MiB (5%)
Default : Yes
Alternate group : 1

AAW United We Stand

 

[/spoiler]

Complete name : AAW United We Stand.mp4
Format : MPEG-4
Format profile : Base Media
Codec ID : isom
File size : 2.90 GiB
Duration : 3 h 24 min
Overall bit rate : 2 031 kb/s

Video
ID : 1
Format : AVC
Format/Info : Advanced Video
Duration : 3 h 24 min
Source duration : 3 h 24 min
Bit rate : 1 927 kb/s
Width : 1 280 pixels
Height : 720 pixels
Display aspect ratio : 16:9
Frame rate mode : Variable
Frame rate : 24.000 FPS
Minimum frame rate : 14.706 FPS
Maximum frame rate : 90 000.000 FPS
Color space : YUV
Chroma subsampling : 4:2:0
Bit depth : 8 bits
Scan type : Progressive
Bits/(Pixel*Frame) : 0.087
Stream size : 2.75 GiB (95%)
mdhd_Duration : 12252563
Codec configuration box : avc

AAW United We Stand

Audio
ID : 2
Format : AAC LC
Format/Info : Advanced Audio
Codec ID : mp4a-40-2
Duration : 3 h 24 min
Bit rate mode : Constant
Bit rate : 93.6 kb/s
Channel(s) : 2 channels
Channel layout : L R
Sampling rate : 48.0 kHz
Frame rate : 46.875 FPS
Compression mode : Lossy
Stream size : 137 MiB (5%)
Default : Yes
Alternate group : 1

AAW United We Stand

 

[/spoiler]

Complete name : AAW United We Stand.mp4
Format : MPEG-4
Format profile : Base Media
Codec ID : isom
File size : 2.90 GiB
Duration : 3 h 24 min
Overall bit rate : 2 031 kb/s

Video
ID : 1
Format : AVC
Format/Info : Advanced Video
Duration : 3 h 24 min
Source duration : 3 h 24 min
Bit rate : 1 927 kb/s
Width : 1 280 pixels
Height : 720 pixels
Display aspect ratio : 16:9
Frame rate mode : Variable
Frame rate : 24.000 FPS
Minimum frame rate : 14.706 FPS
Maximum frame rate : 90 000.000 FPS
Color space : YUV
Chroma subsampling : 4:2:0
Bit depth : 8 bits
Scan type : Progressive
Bits/(Pixel*Frame) : 0.087
Stream size : 2.75 GiB (95%)
mdhd_Duration : 12252563
Codec configuration box : avc

AAW United We Stand

Audio
ID : 2
Format : AAC LC
Format/Info : Advanced Audio
Codec ID : mp4a-40-2
Duration : 3 h 24 min
Bit rate mode : Constant
Bit rate : 93.6 kb/s
Channel(s) : 2 channels
Channel layout : L R
Sampling rate : 48.0 kHz
Frame rate : 46.875 FPS
Compression mode : Lossy
Stream size : 137 MiB (5%)
Default : Yes
Alternate group : 1

AAW United We Stand

 

[/spoiler]

Complete name : AAW United We Stand.mp4
Format : MPEG-4
Format profile : Base Media
Codec ID : isom
File size : 2.90 GiB
Duration : 3 h 24 min
Overall bit rate : 2 031 kb/s

Video
ID : 1
Format : AVC
Format/Info : Advanced Video
Duration : 3 h 24 min
Source duration : 3 h 24 min
Bit rate : 1 927 kb/s
Width : 1 280 pixels
Height : 720 pixels
Display aspect ratio : 16:9
Frame rate mode : Variable
Frame rate : 24.000 FPS
Minimum frame rate : 14.706 FPS
Maximum frame rate : 90 000.000 FPS
Color space : YUV
Chroma subsampling : 4:2:0
Bit depth : 8 bits
Scan type : Progressive
Bits/(Pixel*Frame) : 0.087
Stream size : 2.75 GiB (95%)
mdhd_Duration : 12252563
Codec configuration box : avc

AAW United We Stand

Audio
ID : 2
Format : AAC LC
Format/Info : Advanced Audio
Codec ID : mp4a-40-2
Duration : 3 h 24 min
Bit rate mode : Constant
Bit rate : 93.6 kb/s
Channel(s) : 2 channels
Channel layout : L R
Sampling rate : 48.0 kHz
Frame rate : 46.875 FPS
Compression mode : Lossy
Stream size : 137 MiB (5%)
Default : Yes
Alternate group : 1

AAW United We Stand

 

[/spoiler]

Complete name : AAW United We Stand.mp4
Format : MPEG-4
Format profile : Base Media
Codec ID : isom
File size : 2.90 GiB
Duration : 3 h 24 min
Overall bit rate : 2 031 kb/s

Video
ID : 1
Format : AVC
Format/Info : Advanced Video
Duration : 3 h 24 min
Source duration : 3 h 24 min
Bit rate : 1 927 kb/s
Width : 1 280 pixels
Height : 720 pixels
Display aspect ratio : 16:9
Frame rate mode : Variable
Frame rate : 24.000 FPS
Minimum frame rate : 14.706 FPS
Maximum frame rate : 90 000.000 FPS
Color space : YUV
Chroma subsampling : 4:2:0
Bit depth : 8 bits
Scan type : Progressive
Bits/(Pixel*Frame) : 0.087
Stream size : 2.75 GiB (95%)
mdhd_Duration : 12252563
Codec configuration box : avc

AAW United We Stand

Audio
ID : 2
Format : AAC LC
Format/Info : Advanced Audio
Codec ID : mp4a-40-2
Duration : 3 h 24 min
Bit rate mode : Constant
Bit rate : 93.6 kb/s
Channel(s) : 2 channels
Channel layout : L R
Sampling rate : 48.0 kHz
Frame rate : 46.875 FPS
Compression mode : Lossy
Stream size : 137 MiB (5%)
Default : Yes
Alternate group : 1

AAW United We Stand

 

[/spoiler]

 

 

https://dx-tv.com/

You May Also Like

Leave a Reply

Your email address will not be published. Required fields are marked *

This site uses Akismet to reduce spam. Learn how your comment data is processed.