GCW Fight Club Houston 2021 07 09 Online Free

GCW Fight Club Houston 2021 07 09 Online Free Replay DX-TV

GCW Fight Club Houston

 GCW Fight Club Houston

 

 

 

Download Links with High Speed


Dopapk

 

 

Show Links

 

http://shrt10.com/l4LLTX3

 

[collapse]

 

 

Nitroflare

 

 

Show Links

 

http://shrt10.com/jVM1NRWn

 

[collapse]

 

 

Rapidgator

 

 

Show Links

 

http://shrt10.com/iResZIYn

 

[collapse]

 

 

Uploaded

 

 

Show Links

 

http://shrt10.com/I5TbAFQ2

 

[collapse]

 

 

Watch online

 

Server 1

 

 

 

 

watch now

 

 

 

 

Server-2

 

 

 

 

GCW Fight Club Houston

 

 

 

|Server-3

 

 

 

 

watch now

 

 

Uploaded By Site DX-TV.com

 

 

Show Info This Show

GCW Fight Club Houston

 

Complete name : GCW Fight Club Houston.mp4
Format : MPEG-4
Format profile : Base Media
Codec ID : isom
File size : 3.05 GiB
Duration : 3 h 29 min
Overall bit rate : 2 085 kb/s

Video
ID : 1
Format : AVC
Format/Info : Advanced Video
Duration : 3 h 29 min
Source duration : 3 h 29 min
Bit rate : 1 979 kb/s
Width : 1 280 pixels
Height : 720 pixels
Display aspect ratio : 16:9
Frame rate mode : Variable
Frame rate : 30.000 FPS
Minimum frame rate : 29.412 FPS
Maximum frame rate : 30.303 FPS
Color space : YUV
Chroma subsampling : 4:2:0
Bit depth : 8 bits
Scan type : Progressive
Bits/(Pixel*Frame) : 0.072
Stream size : 2.89 GiB (95%)
mdhd_Duration : 12553819
Codec configuration box : avc

GCW Fight Club Houston

Audio
ID : 2
Format : AAC LC
Format/Info : Advanced Audio
Codec ID : mp4a-40-2
Duration : 3 h 29 min
Bit rate mode : Constant
Bit rate : 93.4 kb/s
Channel(s) : 2 channels
Channel layout : L R
Sampling rate : 48.0 kHz
Frame rate : 46.875 FPS
Compression mode : Lossy
Stream size : 140 MiB (4%)
Default : Yes
Alternate group : 1

GCW Fight Club Houston

Complete name : GCW Fight Club Houston.mp4
Format : MPEG-4
Format profile : Base Media
Codec ID : isom
File size : 3.05 GiB
Duration : 3 h 29 min
Overall bit rate : 2 085 kb/s

Video
ID : 1
Format : AVC
Format/Info : Advanced Video
Duration : 3 h 29 min
Source duration : 3 h 29 min
Bit rate : 1 979 kb/s
Width : 1 280 pixels
Height : 720 pixels
Display aspect ratio : 16:9
Frame rate mode : Variable
Frame rate : 30.000 FPS
Minimum frame rate : 29.412 FPS
Maximum frame rate : 30.303 FPS
Color space : YUV
Chroma subsampling : 4:2:0
Bit depth : 8 bits
Scan type : Progressive
Bits/(Pixel*Frame) : 0.072
Stream size : 2.89 GiB (95%)
mdhd_Duration : 12553819
Codec configuration box : avc

GCW Fight Club Houston

Audio
ID : 2
Format : AAC LC
Format/Info : Advanced Audio
Codec ID : mp4a-40-2
Duration : 3 h 29 min
Bit rate mode : Constant
Bit rate : 93.4 kb/s
Channel(s) : 2 channels
Channel layout : L R
Sampling rate : 48.0 kHz
Frame rate : 46.875 FPS
Compression mode : Lossy
Stream size : 140 MiB (4%)
Default : Yes
Alternate group : 1

GCW Fight Club Houston

Complete name : GCW Fight Club Houston.mp4
Format : MPEG-4
Format profile : Base Media
Codec ID : isom
File size : 3.05 GiB
Duration : 3 h 29 min
Overall bit rate : 2 085 kb/s

Video
ID : 1
Format : AVC
Format/Info : Advanced Video
Duration : 3 h 29 min
Source duration : 3 h 29 min
Bit rate : 1 979 kb/s
Width : 1 280 pixels
Height : 720 pixels
Display aspect ratio : 16:9
Frame rate mode : Variable
Frame rate : 30.000 FPS
Minimum frame rate : 29.412 FPS
Maximum frame rate : 30.303 FPS
Color space : YUV
Chroma subsampling : 4:2:0
Bit depth : 8 bits
Scan type : Progressive
Bits/(Pixel*Frame) : 0.072
Stream size : 2.89 GiB (95%)
mdhd_Duration : 12553819
Codec configuration box : avc

GCW Fight Club Houston

Audio
ID : 2
Format : AAC LC
Format/Info : Advanced Audio
Codec ID : mp4a-40-2
Duration : 3 h 29 min
Bit rate mode : Constant
Bit rate : 93.4 kb/s
Channel(s) : 2 channels
Channel layout : L R
Sampling rate : 48.0 kHz
Frame rate : 46.875 FPS
Compression mode : Lossy
Stream size : 140 MiB (4%)
Default : Yes
Alternate group : 1

GCW Fight Club Houston

Complete name : GCW Fight Club Houston.mp4
Format : MPEG-4
Format profile : Base Media
Codec ID : isom
File size : 3.05 GiB
Duration : 3 h 29 min
Overall bit rate : 2 085 kb/s

Video
ID : 1
Format : AVC
Format/Info : Advanced Video
Duration : 3 h 29 min
Source duration : 3 h 29 min
Bit rate : 1 979 kb/s
Width : 1 280 pixels
Height : 720 pixels
Display aspect ratio : 16:9
Frame rate mode : Variable
Frame rate : 30.000 FPS
Minimum frame rate : 29.412 FPS
Maximum frame rate : 30.303 FPS
Color space : YUV
Chroma subsampling : 4:2:0
Bit depth : 8 bits
Scan type : Progressive
Bits/(Pixel*Frame) : 0.072
Stream size : 2.89 GiB (95%)
mdhd_Duration : 12553819
Codec configuration box : avc

GCW Fight Club Houston

Audio
ID : 2
Format : AAC LC
Format/Info : Advanced Audio
Codec ID : mp4a-40-2
Duration : 3 h 29 min
Bit rate mode : Constant
Bit rate : 93.4 kb/s
Channel(s) : 2 channels
Channel layout : L R
Sampling rate : 48.0 kHz
Frame rate : 46.875 FPS
Compression mode : Lossy
Stream size : 140 MiB (4%)
Default : Yes
Alternate group : 1

GCW Fight Club Houston

Complete name : GCW Fight Club Houston.mp4
Format : MPEG-4
Format profile : Base Media
Codec ID : isom
File size : 3.05 GiB
Duration : 3 h 29 min
Overall bit rate : 2 085 kb/s

Video
ID : 1
Format : AVC
Format/Info : Advanced Video
Duration : 3 h 29 min
Source duration : 3 h 29 min
Bit rate : 1 979 kb/s
Width : 1 280 pixels
Height : 720 pixels
Display aspect ratio : 16:9
Frame rate mode : Variable
Frame rate : 30.000 FPS
Minimum frame rate : 29.412 FPS
Maximum frame rate : 30.303 FPS
Color space : YUV
Chroma subsampling : 4:2:0
Bit depth : 8 bits
Scan type : Progressive
Bits/(Pixel*Frame) : 0.072
Stream size : 2.89 GiB (95%)
mdhd_Duration : 12553819
Codec configuration box : avc

GCW Fight Club Houston

Audio
ID : 2
Format : AAC LC
Format/Info : Advanced Audio
Codec ID : mp4a-40-2
Duration : 3 h 29 min
Bit rate mode : Constant
Bit rate : 93.4 kb/s
Channel(s) : 2 channels
Channel layout : L R
Sampling rate : 48.0 kHz
Frame rate : 46.875 FPS
Compression mode : Lossy
Stream size : 140 MiB (4%)
Default : Yes
Alternate group : 1

GCW Fight Club Houston

Complete name : GCW Fight Club Houston.mp4
Format : MPEG-4
Format profile : Base Media
Codec ID : isom
File size : 3.05 GiB
Duration : 3 h 29 min
Overall bit rate : 2 085 kb/s

Video
ID : 1
Format : AVC
Format/Info : Advanced Video
Duration : 3 h 29 min
Source duration : 3 h 29 min
Bit rate : 1 979 kb/s
Width : 1 280 pixels
Height : 720 pixels
Display aspect ratio : 16:9
Frame rate mode : Variable
Frame rate : 30.000 FPS
Minimum frame rate : 29.412 FPS
Maximum frame rate : 30.303 FPS
Color space : YUV
Chroma subsampling : 4:2:0
Bit depth : 8 bits
Scan type : Progressive
Bits/(Pixel*Frame) : 0.072
Stream size : 2.89 GiB (95%)
mdhd_Duration : 12553819
Codec configuration box : avc

GCW Fight Club Houston

Audio
ID : 2
Format : AAC LC
Format/Info : Advanced Audio
Codec ID : mp4a-40-2
Duration : 3 h 29 min
Bit rate mode : Constant
Bit rate : 93.4 kb/s
Channel(s) : 2 channels
Channel layout : L R
Sampling rate : 48.0 kHz
Frame rate : 46.875 FPS
Compression mode : Lossy
Stream size : 140 MiB (4%)
Default : Yes
Alternate group : 1

GCW Fight Club Houston

Complete name : GCW Fight Club Houston.mp4
Format : MPEG-4
Format profile : Base Media
Codec ID : isom
File size : 3.05 GiB
Duration : 3 h 29 min
Overall bit rate : 2 085 kb/s

Video
ID : 1
Format : AVC
Format/Info : Advanced Video
Duration : 3 h 29 min
Source duration : 3 h 29 min
Bit rate : 1 979 kb/s
Width : 1 280 pixels
Height : 720 pixels
Display aspect ratio : 16:9
Frame rate mode : Variable
Frame rate : 30.000 FPS
Minimum frame rate : 29.412 FPS
Maximum frame rate : 30.303 FPS
Color space : YUV
Chroma subsampling : 4:2:0
Bit depth : 8 bits
Scan type : Progressive
Bits/(Pixel*Frame) : 0.072
Stream size : 2.89 GiB (95%)
mdhd_Duration : 12553819
Codec configuration box : avc

GCW Fight Club Houston

Audio
ID : 2
Format : AAC LC
Format/Info : Advanced Audio
Codec ID : mp4a-40-2
Duration : 3 h 29 min
Bit rate mode : Constant
Bit rate : 93.4 kb/s
Channel(s) : 2 channels
Channel layout : L R
Sampling rate : 48.0 kHz
Frame rate : 46.875 FPS
Compression mode : Lossy
Stream size : 140 MiB (4%)
Default : Yes
Alternate group : 1

GCW Fight Club Houston

Complete name : GCW Fight Club Houston.mp4
Format : MPEG-4
Format profile : Base Media
Codec ID : isom
File size : 3.05 GiB
Duration : 3 h 29 min
Overall bit rate : 2 085 kb/s

Video
ID : 1
Format : AVC
Format/Info : Advanced Video
Duration : 3 h 29 min
Source duration : 3 h 29 min
Bit rate : 1 979 kb/s
Width : 1 280 pixels
Height : 720 pixels
Display aspect ratio : 16:9
Frame rate mode : Variable
Frame rate : 30.000 FPS
Minimum frame rate : 29.412 FPS
Maximum frame rate : 30.303 FPS
Color space : YUV
Chroma subsampling : 4:2:0
Bit depth : 8 bits
Scan type : Progressive
Bits/(Pixel*Frame) : 0.072
Stream size : 2.89 GiB (95%)
mdhd_Duration : 12553819
Codec configuration box : avc

GCW Fight Club Houston

Audio
ID : 2
Format : AAC LC
Format/Info : Advanced Audio
Codec ID : mp4a-40-2
Duration : 3 h 29 min
Bit rate mode : Constant
Bit rate : 93.4 kb/s
Channel(s) : 2 channels
Channel layout : L R
Sampling rate : 48.0 kHz
Frame rate : 46.875 FPS
Compression mode : Lossy
Stream size : 140 MiB (4%)
Default : Yes
Alternate group : 1

GCW Fight Club Houston

Complete name : GCW Fight Club Houston.mp4
Format : MPEG-4
Format profile : Base Media
Codec ID : isom
File size : 3.05 GiB
Duration : 3 h 29 min
Overall bit rate : 2 085 kb/s

Video
ID : 1
Format : AVC
Format/Info : Advanced Video
Duration : 3 h 29 min
Source duration : 3 h 29 min
Bit rate : 1 979 kb/s
Width : 1 280 pixels
Height : 720 pixels
Display aspect ratio : 16:9
Frame rate mode : Variable
Frame rate : 30.000 FPS
Minimum frame rate : 29.412 FPS
Maximum frame rate : 30.303 FPS
Color space : YUV
Chroma subsampling : 4:2:0
Bit depth : 8 bits
Scan type : Progressive
Bits/(Pixel*Frame) : 0.072
Stream size : 2.89 GiB (95%)
mdhd_Duration : 12553819
Codec configuration box : avc

GCW Fight Club Houston

Audio
ID : 2
Format : AAC LC
Format/Info : Advanced Audio
Codec ID : mp4a-40-2
Duration : 3 h 29 min
Bit rate mode : Constant
Bit rate : 93.4 kb/s
Channel(s) : 2 channels
Channel layout : L R
Sampling rate : 48.0 kHz
Frame rate : 46.875 FPS
Compression mode : Lossy
Stream size : 140 MiB (4%)
Default : Yes
Alternate group : 1

GCW Fight Club Houston

Complete name : GCW Fight Club Houston.mp4
Format : MPEG-4
Format profile : Base Media
Codec ID : isom
File size : 3.05 GiB
Duration : 3 h 29 min
Overall bit rate : 2 085 kb/s

Video
ID : 1
Format : AVC
Format/Info : Advanced Video
Duration : 3 h 29 min
Source duration : 3 h 29 min
Bit rate : 1 979 kb/s
Width : 1 280 pixels
Height : 720 pixels
Display aspect ratio : 16:9
Frame rate mode : Variable
Frame rate : 30.000 FPS
Minimum frame rate : 29.412 FPS
Maximum frame rate : 30.303 FPS
Color space : YUV
Chroma subsampling : 4:2:0
Bit depth : 8 bits
Scan type : Progressive
Bits/(Pixel*Frame) : 0.072
Stream size : 2.89 GiB (95%)
mdhd_Duration : 12553819
Codec configuration box : avc

GCW Fight Club Houston

Audio
ID : 2
Format : AAC LC
Format/Info : Advanced Audio
Codec ID : mp4a-40-2
Duration : 3 h 29 min
Bit rate mode : Constant
Bit rate : 93.4 kb/s
Channel(s) : 2 channels
Channel layout : L R
Sampling rate : 48.0 kHz
Frame rate : 46.875 FPS
Compression mode : Lossy
Stream size : 140 MiB (4%)
Default : Yes
Alternate group : 1

GCW Fight Club Houston

Complete name : GCW Fight Club Houston.mp4
Format : MPEG-4
Format profile : Base Media
Codec ID : isom
File size : 3.05 GiB
Duration : 3 h 29 min
Overall bit rate : 2 085 kb/s

Video
ID : 1
Format : AVC
Format/Info : Advanced Video
Duration : 3 h 29 min
Source duration : 3 h 29 min
Bit rate : 1 979 kb/s
Width : 1 280 pixels
Height : 720 pixels
Display aspect ratio : 16:9
Frame rate mode : Variable
Frame rate : 30.000 FPS
Minimum frame rate : 29.412 FPS
Maximum frame rate : 30.303 FPS
Color space : YUV
Chroma subsampling : 4:2:0
Bit depth : 8 bits
Scan type : Progressive
Bits/(Pixel*Frame) : 0.072
Stream size : 2.89 GiB (95%)
mdhd_Duration : 12553819
Codec configuration box : avc

GCW Fight Club Houston

Audio
ID : 2
Format : AAC LC
Format/Info : Advanced Audio
Codec ID : mp4a-40-2
Duration : 3 h 29 min
Bit rate mode : Constant
Bit rate : 93.4 kb/s
Channel(s) : 2 channels
Channel layout : L R
Sampling rate : 48.0 kHz
Frame rate : 46.875 FPS
Compression mode : Lossy
Stream size : 140 MiB (4%)
Default : Yes
Alternate group : 1

GCW Fight Club Houston

Complete name : GCW Fight Club Houston.mp4
Format : MPEG-4
Format profile : Base Media
Codec ID : isom
File size : 3.05 GiB
Duration : 3 h 29 min
Overall bit rate : 2 085 kb/s

Video
ID : 1
Format : AVC
Format/Info : Advanced Video
Duration : 3 h 29 min
Source duration : 3 h 29 min
Bit rate : 1 979 kb/s
Width : 1 280 pixels
Height : 720 pixels
Display aspect ratio : 16:9
Frame rate mode : Variable
Frame rate : 30.000 FPS
Minimum frame rate : 29.412 FPS
Maximum frame rate : 30.303 FPS
Color space : YUV
Chroma subsampling : 4:2:0
Bit depth : 8 bits
Scan type : Progressive
Bits/(Pixel*Frame) : 0.072
Stream size : 2.89 GiB (95%)
mdhd_Duration : 12553819
Codec configuration box : avc

GCW Fight Club Houston

Audio
ID : 2
Format : AAC LC
Format/Info : Advanced Audio
Codec ID : mp4a-40-2
Duration : 3 h 29 min
Bit rate mode : Constant
Bit rate : 93.4 kb/s
Channel(s) : 2 channels
Channel layout : L R
Sampling rate : 48.0 kHz
Frame rate : 46.875 FPS
Compression mode : Lossy
Stream size : 140 MiB (4%)
Default : Yes
Alternate group : 1

GCW Fight Club Houston

Complete name : GCW Fight Club Houston.mp4
Format : MPEG-4
Format profile : Base Media
Codec ID : isom
File size : 3.05 GiB
Duration : 3 h 29 min
Overall bit rate : 2 085 kb/s

Video
ID : 1
Format : AVC
Format/Info : Advanced Video
Duration : 3 h 29 min
Source duration : 3 h 29 min
Bit rate : 1 979 kb/s
Width : 1 280 pixels
Height : 720 pixels
Display aspect ratio : 16:9
Frame rate mode : Variable
Frame rate : 30.000 FPS
Minimum frame rate : 29.412 FPS
Maximum frame rate : 30.303 FPS
Color space : YUV
Chroma subsampling : 4:2:0
Bit depth : 8 bits
Scan type : Progressive
Bits/(Pixel*Frame) : 0.072
Stream size : 2.89 GiB (95%)
mdhd_Duration : 12553819
Codec configuration box : avc

GCW Fight Club Houston

Audio
ID : 2
Format : AAC LC
Format/Info : Advanced Audio
Codec ID : mp4a-40-2
Duration : 3 h 29 min
Bit rate mode : Constant
Bit rate : 93.4 kb/s
Channel(s) : 2 channels
Channel layout : L R
Sampling rate : 48.0 kHz
Frame rate : 46.875 FPS
Compression mode : Lossy
Stream size : 140 MiB (4%)
Default : Yes
Alternate group : 1

GCW Fight Club Houston

Complete name : GCW Fight Club Houston.mp4
Format : MPEG-4
Format profile : Base Media
Codec ID : isom
File size : 3.05 GiB
Duration : 3 h 29 min
Overall bit rate : 2 085 kb/s

Video
ID : 1
Format : AVC
Format/Info : Advanced Video
Duration : 3 h 29 min
Source duration : 3 h 29 min
Bit rate : 1 979 kb/s
Width : 1 280 pixels
Height : 720 pixels
Display aspect ratio : 16:9
Frame rate mode : Variable
Frame rate : 30.000 FPS
Minimum frame rate : 29.412 FPS
Maximum frame rate : 30.303 FPS
Color space : YUV
Chroma subsampling : 4:2:0
Bit depth : 8 bits
Scan type : Progressive
Bits/(Pixel*Frame) : 0.072
Stream size : 2.89 GiB (95%)
mdhd_Duration : 12553819
Codec configuration box : avc

GCW Fight Club Houston

Audio
ID : 2
Format : AAC LC
Format/Info : Advanced Audio
Codec ID : mp4a-40-2
Duration : 3 h 29 min
Bit rate mode : Constant
Bit rate : 93.4 kb/s
Channel(s) : 2 channels
Channel layout : L R
Sampling rate : 48.0 kHz
Frame rate : 46.875 FPS
Compression mode : Lossy
Stream size : 140 MiB (4%)
Default : Yes
Alternate group : 1

GCW Fight Club Houston

Complete name : GCW Fight Club Houston.mp4
Format : MPEG-4
Format profile : Base Media
Codec ID : isom
File size : 3.05 GiB
Duration : 3 h 29 min
Overall bit rate : 2 085 kb/s

Video
ID : 1
Format : AVC
Format/Info : Advanced Video
Duration : 3 h 29 min
Source duration : 3 h 29 min
Bit rate : 1 979 kb/s
Width : 1 280 pixels
Height : 720 pixels
Display aspect ratio : 16:9
Frame rate mode : Variable
Frame rate : 30.000 FPS
Minimum frame rate : 29.412 FPS
Maximum frame rate : 30.303 FPS
Color space : YUV
Chroma subsampling : 4:2:0
Bit depth : 8 bits
Scan type : Progressive
Bits/(Pixel*Frame) : 0.072
Stream size : 2.89 GiB (95%)
mdhd_Duration : 12553819
Codec configuration box : avc

GCW Fight Club Houston

Audio
ID : 2
Format : AAC LC
Format/Info : Advanced Audio
Codec ID : mp4a-40-2
Duration : 3 h 29 min
Bit rate mode : Constant
Bit rate : 93.4 kb/s
Channel(s) : 2 channels
Channel layout : L R
Sampling rate : 48.0 kHz
Frame rate : 46.875 FPS
Compression mode : Lossy
Stream size : 140 MiB (4%)
Default : Yes
Alternate group : 1

GCW Fight Club Houston

Complete name : GCW Fight Club Houston.mp4
Format : MPEG-4
Format profile : Base Media
Codec ID : isom
File size : 3.05 GiB
Duration : 3 h 29 min
Overall bit rate : 2 085 kb/s

Video
ID : 1
Format : AVC
Format/Info : Advanced Video
Duration : 3 h 29 min
Source duration : 3 h 29 min
Bit rate : 1 979 kb/s
Width : 1 280 pixels
Height : 720 pixels
Display aspect ratio : 16:9
Frame rate mode : Variable
Frame rate : 30.000 FPS
Minimum frame rate : 29.412 FPS
Maximum frame rate : 30.303 FPS
Color space : YUV
Chroma subsampling : 4:2:0
Bit depth : 8 bits
Scan type : Progressive
Bits/(Pixel*Frame) : 0.072
Stream size : 2.89 GiB (95%)
mdhd_Duration : 12553819
Codec configuration box : avc

GCW Fight Club Houston

Audio
ID : 2
Format : AAC LC
Format/Info : Advanced Audio
Codec ID : mp4a-40-2
Duration : 3 h 29 min
Bit rate mode : Constant
Bit rate : 93.4 kb/s
Channel(s) : 2 channels
Channel layout : L R
Sampling rate : 48.0 kHz
Frame rate : 46.875 FPS
Compression mode : Lossy
Stream size : 140 MiB (4%)
Default : Yes
Alternate group : 1

GCW Fight Club Houston

Complete name : GCW Fight Club Houston.mp4
Format : MPEG-4
Format profile : Base Media
Codec ID : isom
File size : 3.05 GiB
Duration : 3 h 29 min
Overall bit rate : 2 085 kb/s

Video
ID : 1
Format : AVC
Format/Info : Advanced Video
Duration : 3 h 29 min
Source duration : 3 h 29 min
Bit rate : 1 979 kb/s
Width : 1 280 pixels
Height : 720 pixels
Display aspect ratio : 16:9
Frame rate mode : Variable
Frame rate : 30.000 FPS
Minimum frame rate : 29.412 FPS
Maximum frame rate : 30.303 FPS
Color space : YUV
Chroma subsampling : 4:2:0
Bit depth : 8 bits
Scan type : Progressive
Bits/(Pixel*Frame) : 0.072
Stream size : 2.89 GiB (95%)
mdhd_Duration : 12553819
Codec configuration box : avc

GCW Fight Club Houston

Audio
ID : 2
Format : AAC LC
Format/Info : Advanced Audio
Codec ID : mp4a-40-2
Duration : 3 h 29 min
Bit rate mode : Constant
Bit rate : 93.4 kb/s
Channel(s) : 2 channels
Channel layout : L R
Sampling rate : 48.0 kHz
Frame rate : 46.875 FPS
Compression mode : Lossy
Stream size : 140 MiB (4%)
Default : Yes
Alternate group : 1

GCW Fight Club Houston

Complete name : GCW Fight Club Houston.mp4
Format : MPEG-4
Format profile : Base Media
Codec ID : isom
File size : 3.05 GiB
Duration : 3 h 29 min
Overall bit rate : 2 085 kb/s

Video
ID : 1
Format : AVC
Format/Info : Advanced Video
Duration : 3 h 29 min
Source duration : 3 h 29 min
Bit rate : 1 979 kb/s
Width : 1 280 pixels
Height : 720 pixels
Display aspect ratio : 16:9
Frame rate mode : Variable
Frame rate : 30.000 FPS
Minimum frame rate : 29.412 FPS
Maximum frame rate : 30.303 FPS
Color space : YUV
Chroma subsampling : 4:2:0
Bit depth : 8 bits
Scan type : Progressive
Bits/(Pixel*Frame) : 0.072
Stream size : 2.89 GiB (95%)
mdhd_Duration : 12553819
Codec configuration box : avc

GCW Fight Club Houston

Audio
ID : 2
Format : AAC LC
Format/Info : Advanced Audio
Codec ID : mp4a-40-2
Duration : 3 h 29 min
Bit rate mode : Constant
Bit rate : 93.4 kb/s
Channel(s) : 2 channels
Channel layout : L R
Sampling rate : 48.0 kHz
Frame rate : 46.875 FPS
Compression mode : Lossy
Stream size : 140 MiB (4%)
Default : Yes
Alternate group : 1

GCW Fight Club Houston

Complete name : GCW Fight Club Houston.mp4
Format : MPEG-4
Format profile : Base Media
Codec ID : isom
File size : 3.05 GiB
Duration : 3 h 29 min
Overall bit rate : 2 085 kb/s

Video
ID : 1
Format : AVC
Format/Info : Advanced Video
Duration : 3 h 29 min
Source duration : 3 h 29 min
Bit rate : 1 979 kb/s
Width : 1 280 pixels
Height : 720 pixels
Display aspect ratio : 16:9
Frame rate mode : Variable
Frame rate : 30.000 FPS
Minimum frame rate : 29.412 FPS
Maximum frame rate : 30.303 FPS
Color space : YUV
Chroma subsampling : 4:2:0
Bit depth : 8 bits
Scan type : Progressive
Bits/(Pixel*Frame) : 0.072
Stream size : 2.89 GiB (95%)
mdhd_Duration : 12553819
Codec configuration box : avc

GCW Fight Club Houston

Audio
ID : 2
Format : AAC LC
Format/Info : Advanced Audio
Codec ID : mp4a-40-2
Duration : 3 h 29 min
Bit rate mode : Constant
Bit rate : 93.4 kb/s
Channel(s) : 2 channels
Channel layout : L R
Sampling rate : 48.0 kHz
Frame rate : 46.875 FPS
Compression mode : Lossy
Stream size : 140 MiB (4%)
Default : Yes
Alternate group : 1

GCW Fight Club Houston

Complete name : GCW Fight Club Houston.mp4
Format : MPEG-4
Format profile : Base Media
Codec ID : isom
File size : 3.05 GiB
Duration : 3 h 29 min
Overall bit rate : 2 085 kb/s

Video
ID : 1
Format : AVC
Format/Info : Advanced Video
Duration : 3 h 29 min
Source duration : 3 h 29 min
Bit rate : 1 979 kb/s
Width : 1 280 pixels
Height : 720 pixels
Display aspect ratio : 16:9
Frame rate mode : Variable
Frame rate : 30.000 FPS
Minimum frame rate : 29.412 FPS
Maximum frame rate : 30.303 FPS
Color space : YUV
Chroma subsampling : 4:2:0
Bit depth : 8 bits
Scan type : Progressive
Bits/(Pixel*Frame) : 0.072
Stream size : 2.89 GiB (95%)
mdhd_Duration : 12553819
Codec configuration box : avc

GCW Fight Club Houston

Audio
ID : 2
Format : AAC LC
Format/Info : Advanced Audio
Codec ID : mp4a-40-2
Duration : 3 h 29 min
Bit rate mode : Constant
Bit rate : 93.4 kb/s
Channel(s) : 2 channels
Channel layout : L R
Sampling rate : 48.0 kHz
Frame rate : 46.875 FPS
Compression mode : Lossy
Stream size : 140 MiB (4%)
Default : Yes
Alternate group : 1

GCW Fight Club Houston

Complete name : GCW Fight Club Houston.mp4
Format : MPEG-4
Format profile : Base Media
Codec ID : isom
File size : 3.05 GiB
Duration : 3 h 29 min
Overall bit rate : 2 085 kb/s

Video
ID : 1
Format : AVC
Format/Info : Advanced Video
Duration : 3 h 29 min
Source duration : 3 h 29 min
Bit rate : 1 979 kb/s
Width : 1 280 pixels
Height : 720 pixels
Display aspect ratio : 16:9
Frame rate mode : Variable
Frame rate : 30.000 FPS
Minimum frame rate : 29.412 FPS
Maximum frame rate : 30.303 FPS
Color space : YUV
Chroma subsampling : 4:2:0
Bit depth : 8 bits
Scan type : Progressive
Bits/(Pixel*Frame) : 0.072
Stream size : 2.89 GiB (95%)
mdhd_Duration : 12553819
Codec configuration box : avc

GCW Fight Club Houston

Audio
ID : 2
Format : AAC LC
Format/Info : Advanced Audio
Codec ID : mp4a-40-2
Duration : 3 h 29 min
Bit rate mode : Constant
Bit rate : 93.4 kb/s
Channel(s) : 2 channels
Channel layout : L R
Sampling rate : 48.0 kHz
Frame rate : 46.875 FPS
Compression mode : Lossy
Stream size : 140 MiB (4%)
Default : Yes
Alternate group : 1

GCW Fight Club Houston

 

[collapse]

 

 

https://dx-tv.com/

Leave a Reply

Your email address will not be published. Required fields are marked *

This site uses Akismet to reduce spam. Learn how your comment data is processed.