WWN Eddie Kingstons Grindhouse Ground Zero 2020 Online

Watch WWN Eddie Kingstons Grindhouse Ground Zero 2020 09 26 720p DX-TV

 

WWN Eddie Kingstons

 

 WWN Eddie Kingstons Grindhouse Ground Zero

WWN Eddie Kingstons Grindhouse Ground Zero 2020 Online

 

is launching their first brand since selling EVOLVE to WWE in Eddie Kingston’s Grindhouse.

The company announced on Monday that the promotion will debut with its first show on September 26th, streaming live on iPPV.

WWN Eddie Kingstons

The announcement reads:

The World Wrestling Network (WWN) is excited to announce a new professional wrestling brand within the WWN Family! On September 26th, the first ever Eddie Kingston’s Grindhouse event will be held in the Greater Tampa Bay area broadcasting live on Club WWN for subscribers and available for individual purchase at WWNLive.com and FITE TV.

“We’re thrilled to introduce this new concept to the sport of professional wrestling,” declares WWN Ambassador Trevin Adams.  Eddie Kingstons

“This isn’t about the past or where we have been. This is ground zero for the promotion and talent. We’re very excited to share more about Eddie Kingston’s Grindhouse in the coming weeks.”

WWN Eddie Kingstons

 

Complete name : WWN Eddie Kingstons Grindhouse Ground Zero 2020 09 26 720p WEB DX-TV.mp4
Format : MPEG-4
Format profile : Base Media
Codec ID : isom
File size : 2.51 GiB
Duration : 1 h 58 min
Overall bit rate mode : Variable
Overall bit rate : 3 031 kb/s
Movie name : index
Writing application : Lavf57.48.100
Comment : Recorded BY DX-TV.COM

WWN Eddie Kingstons

Video
ID : 1
Format : AVC
Codec ID : avc1
Codec ID/Info : Advanced
Duration : 1 h 58 min
Bit rate : 2 758 kb/s
Width : 1 280 pixels
Height : 720 pixels
Display aspect ratio : 16:9
Frame rate mode : Variable
Frame rate : 29.890 FPS
Minimum frame rate : 0.454 FPS
rate : 58.765 FPS
frame rate : 29.970 (29970/1000) FPS
Color space : YUV
Chroma subsampling : 4:2:0
Bit depth : 8 bits
Scan type : Progressive
Bits/(Pixel*Frame) : 0.100
Stream size : 2.29 GiB (91%)
Codec configuration box : avcC

Eddie Kingstons

Audio
ID : 2
Format : AAC LC
Format/Info : Advanced Audio
Codec ID : mp4a-40-2
Duration : 1 h 58 min
Bit rate mode : Variable
Bit rate : 265 kb/s
Channel(s) : 2 channels
Channel layout : L R
Sampling rate : 48.0 kHz
Frame rate : 46.875 FPS (1024 SPF)
Compression mode : Lossy
Stream size : 222 MiB (9%)
Default : Yes
Alternate group : 1

 

 

 

WWN Eddie Kingstons Grindhouse Ground Zero 2020 Online

 

 

 

 

Watch online

 

 

 

 

 

Server 1

 

 

 

 

watch now

 

 

 

 

Server-2

 

 

 

watch now

 

 

 

 

Server-3

 

 

 

WWN Eddie Kingstons

 

 

 

 

Uploaded By Site DX-TV.com

 

 

 

 

Download Free Links with normal and high Speed [ more 15 hosts ]  

 

 

 

 

http://shrt10.com/a3jEv6
http://shrt10.com/f34riDu1c
http://shrt10.com/NnEcgW0I
http://shrt10.com/vDnRym
http://shrt10.com/geAxQ
http://shrt10.com/Qx7yj
http://shrt10.com/YGN7uUd
http://shrt10.com/y2nFt
http://shrt10.com/AiaFfO78X
http://shrt10.com/RppFM

 

 

 

Download Links with premium High Speed   

 

 

 

nitroflare.com

 

 

 

rapidgator.net

 

 

 

uploaded.net

 

 

 

uploadgig.com

 

 

 

 

 

dx-tv.com

 

urlfree.net

Leave a Reply

Your email address will not be published. Required fields are marked *

This site uses Akismet to reduce spam. Learn how your comment data is processed.