WWEs Most Wanted Treasures S01E09 Online Free

WWEs Most Wanted Treasures S01E09 720p Online Free Replay DX-TV

Contents show

WWEs Most Wanted Treasures

 WWEs Most Wanted Treasures

 

 

 

Download Links with High Speed


 

Dopapk

 

 

Show Links

 

http://shrt10.com/wbJRfODx1

 

[collapse]

 

 

Nitroflare

 

 

Show Links

 

http://shrt10.com/MlihRSb

 

[collapse]

 

 

Rapidgator

 

 

Show Links

 

http://shrt10.com/6e41mN3

 

[collapse]

 

 

Uploaded

 

 

Show Links

 

http://shrt10.com/82pWj

 

[collapse]

 

 

Watch online

 

Server 1

 

 

 

 

WWEs Most Wanted Treasures

 

 

 

 

Server-2

 

 

 

 

watch now

 

 

 

|Server-4

 

 

 

 

watch now

 

 

Uploaded By Site DX-TV.com

 

 

Show Info This Show

 

WWEs Most Wanted Treasures

Complete name : WWEs.Most.Wanted.Treasures.S01E09.720p.WEB.h264-BAE.mkv
Format : Matroska
Format version : Version 4
File size : 1.55 GiB
Duration : 1 h 24 min
Overall bit rate : 2 622 kb/s

Video
ID : 1
Format : AVC
Format/Info : Advanced Video
Format profile : [email protected]
Duration : 1 h 24 min
Bit rate : 2 491 kb/s
Width : 1 280 pixels
Height : 720 pixels
Display aspect ratio : 16:9
Frame rate mode : Constant
Frame rate : 23.976 (24000/1001) FPS
Color space : YUV
Chroma subsampling : 4:2:0
Bit depth : 8 bits
Scan type : Progressive
Bits/(Pixel*Frame) : 0.113
Stream size : 1.47 GiB (95%)
Language : English
Default : Yes
Forced : No
Color range : Limited
Color primaries : BT.709
Transfer characteristics : BT.709
Matrix coefficients : BT.709

WWEs Most Wanted Treasuresv

Audio
ID : 2
Format : AAC LC
Format/Info : Advanced Audio
Codec ID : A_AAC-2
Duration : 1 h 24 min
Bit rate : 128 kb/s
Channel(s) : 2 channels
Channel layout : L R
Sampling rate : 48.0 kHz
Frame rate : 46.875 FPS (1024 SPF)
Compression mode : Lossy
Stream size : 77.2 MiB (5%)
Language : English
Default : Yes
Forced : No

Text
ID : 3
Format : UTF-8
Codec ID : S_TEXT/UTF8
Codec ID/Info : UTF-8 Plain Text
Duration : 1 h 24 min
Bit rate : 138 b/s
Count of elements : 2112
Stream size : 85.3 KiB (0%)
Language : English
Default : No
Forced : No

WWEs Most Wanted Treasuresv

Complete name : WWEs.Most.Wanted.Treasures.S01E09.720p.WEB.h264-BAE.mkv
Format : Matroska
Format version : Version 4
File size : 1.55 GiB
Duration : 1 h 24 min
Overall bit rate : 2 622 kb/s

Video
ID : 1
Format : AVC
Format/Info : Advanced Video
Format profile : [email protected]
Duration : 1 h 24 min
Bit rate : 2 491 kb/s
Width : 1 280 pixels
Height : 720 pixels
Display aspect ratio : 16:9
Frame rate mode : Constant
Frame rate : 23.976 (24000/1001) FPS
Color space : YUV
Chroma subsampling : 4:2:0
Bit depth : 8 bits
Scan type : Progressive
Bits/(Pixel*Frame) : 0.113
Stream size : 1.47 GiB (95%)
Language : English
Default : Yes
Forced : No
Color range : Limited
Color primaries : BT.709
Transfer characteristics : BT.709
Matrix coefficients : BT.709

WWEs Most Wanted Treasuresv

Audio
ID : 2
Format : AAC LC
Format/Info : Advanced Audio
Codec ID : A_AAC-2
Duration : 1 h 24 min
Bit rate : 128 kb/s
Channel(s) : 2 channels
Channel layout : L R
Sampling rate : 48.0 kHz
Frame rate : 46.875 FPS (1024 SPF)
Compression mode : Lossy
Stream size : 77.2 MiB (5%)
Language : English
Default : Yes
Forced : No

Text
ID : 3
Format : UTF-8
Codec ID : S_TEXT/UTF8
Codec ID/Info : UTF-8 Plain Text
Duration : 1 h 24 min
Bit rate : 138 b/s
Count of elements : 2112
Stream size : 85.3 KiB (0%)
Language : English
Default : No
Forced : No

WWEs Most Wanted Treasuresv

Complete name : WWEs.Most.Wanted.Treasures.S01E09.720p.WEB.h264-BAE.mkv
Format : Matroska
Format version : Version 4
File size : 1.55 GiB
Duration : 1 h 24 min
Overall bit rate : 2 622 kb/s

Video
ID : 1
Format : AVC
Format/Info : Advanced Video
Format profile : [email protected]
Duration : 1 h 24 min
Bit rate : 2 491 kb/s
Width : 1 280 pixels
Height : 720 pixels
Display aspect ratio : 16:9
Frame rate mode : Constant
Frame rate : 23.976 (24000/1001) FPS
Color space : YUV
Chroma subsampling : 4:2:0
Bit depth : 8 bits
Scan type : Progressive
Bits/(Pixel*Frame) : 0.113
Stream size : 1.47 GiB (95%)
Language : English
Default : Yes
Forced : No
Color range : Limited
Color primaries : BT.709
Transfer characteristics : BT.709
Matrix coefficients : BT.709

WWEs Most Wanted Treasuresv

Audio
ID : 2
Format : AAC LC
Format/Info : Advanced Audio
Codec ID : A_AAC-2
Duration : 1 h 24 min
Bit rate : 128 kb/s
Channel(s) : 2 channels
Channel layout : L R
Sampling rate : 48.0 kHz
Frame rate : 46.875 FPS (1024 SPF)
Compression mode : Lossy
Stream size : 77.2 MiB (5%)
Language : English
Default : Yes
Forced : No

Text
ID : 3
Format : UTF-8
Codec ID : S_TEXT/UTF8
Codec ID/Info : UTF-8 Plain Text
Duration : 1 h 24 min
Bit rate : 138 b/s
Count of elements : 2112
Stream size : 85.3 KiB (0%)
Language : English
Default : No
Forced : No

WWEs Most Wanted Treasuresv

Complete name : WWEs.Most.Wanted.Treasures.S01E09.720p.WEB.h264-BAE.mkv
Format : Matroska
Format version : Version 4
File size : 1.55 GiB
Duration : 1 h 24 min
Overall bit rate : 2 622 kb/s

Video
ID : 1
Format : AVC
Format/Info : Advanced Video
Format profile : [email protected]
Duration : 1 h 24 min
Bit rate : 2 491 kb/s
Width : 1 280 pixels
Height : 720 pixels
Display aspect ratio : 16:9
Frame rate mode : Constant
Frame rate : 23.976 (24000/1001) FPS
Color space : YUV
Chroma subsampling : 4:2:0
Bit depth : 8 bits
Scan type : Progressive
Bits/(Pixel*Frame) : 0.113
Stream size : 1.47 GiB (95%)
Language : English
Default : Yes
Forced : No
Color range : Limited
Color primaries : BT.709
Transfer characteristics : BT.709
Matrix coefficients : BT.709

WWEs Most Wanted Treasuresv

Audio
ID : 2
Format : AAC LC
Format/Info : Advanced Audio
Codec ID : A_AAC-2
Duration : 1 h 24 min
Bit rate : 128 kb/s
Channel(s) : 2 channels
Channel layout : L R
Sampling rate : 48.0 kHz
Frame rate : 46.875 FPS (1024 SPF)
Compression mode : Lossy
Stream size : 77.2 MiB (5%)
Language : English
Default : Yes
Forced : No

Text
ID : 3
Format : UTF-8
Codec ID : S_TEXT/UTF8
Codec ID/Info : UTF-8 Plain Text
Duration : 1 h 24 min
Bit rate : 138 b/s
Count of elements : 2112
Stream size : 85.3 KiB (0%)
Language : English
Default : No
Forced : No

WWEs Most Wanted Treasuresv

Complete name : WWEs.Most.Wanted.Treasures.S01E09.720p.WEB.h264-BAE.mkv
Format : Matroska
Format version : Version 4
File size : 1.55 GiB
Duration : 1 h 24 min
Overall bit rate : 2 622 kb/s

Video
ID : 1
Format : AVC
Format/Info : Advanced Video
Format profile : [email protected]
Duration : 1 h 24 min
Bit rate : 2 491 kb/s
Width : 1 280 pixels
Height : 720 pixels
Display aspect ratio : 16:9
Frame rate mode : Constant
Frame rate : 23.976 (24000/1001) FPS
Color space : YUV
Chroma subsampling : 4:2:0
Bit depth : 8 bits
Scan type : Progressive
Bits/(Pixel*Frame) : 0.113
Stream size : 1.47 GiB (95%)
Language : English
Default : Yes
Forced : No
Color range : Limited
Color primaries : BT.709
Transfer characteristics : BT.709
Matrix coefficients : BT.709

WWEs Most Wanted Treasuresv

Audio
ID : 2
Format : AAC LC
Format/Info : Advanced Audio
Codec ID : A_AAC-2
Duration : 1 h 24 min
Bit rate : 128 kb/s
Channel(s) : 2 channels
Channel layout : L R
Sampling rate : 48.0 kHz
Frame rate : 46.875 FPS (1024 SPF)
Compression mode : Lossy
Stream size : 77.2 MiB (5%)
Language : English
Default : Yes
Forced : No

Text
ID : 3
Format : UTF-8
Codec ID : S_TEXT/UTF8
Codec ID/Info : UTF-8 Plain Text
Duration : 1 h 24 min
Bit rate : 138 b/s
Count of elements : 2112
Stream size : 85.3 KiB (0%)
Language : English
Default : No
Forced : No

WWEs Most Wanted Treasuresv

Complete name : WWEs.Most.Wanted.Treasures.S01E09.720p.WEB.h264-BAE.mkv
Format : Matroska
Format version : Version 4
File size : 1.55 GiB
Duration : 1 h 24 min
Overall bit rate : 2 622 kb/s

Video
ID : 1
Format : AVC
Format/Info : Advanced Video
Format profile : [email protected]
Duration : 1 h 24 min
Bit rate : 2 491 kb/s
Width : 1 280 pixels
Height : 720 pixels
Display aspect ratio : 16:9
Frame rate mode : Constant
Frame rate : 23.976 (24000/1001) FPS
Color space : YUV
Chroma subsampling : 4:2:0
Bit depth : 8 bits
Scan type : Progressive
Bits/(Pixel*Frame) : 0.113
Stream size : 1.47 GiB (95%)
Language : English
Default : Yes
Forced : No
Color range : Limited
Color primaries : BT.709
Transfer characteristics : BT.709
Matrix coefficients : BT.709

WWEs Most Wanted Treasuresv

Audio
ID : 2
Format : AAC LC
Format/Info : Advanced Audio
Codec ID : A_AAC-2
Duration : 1 h 24 min
Bit rate : 128 kb/s
Channel(s) : 2 channels
Channel layout : L R
Sampling rate : 48.0 kHz
Frame rate : 46.875 FPS (1024 SPF)
Compression mode : Lossy
Stream size : 77.2 MiB (5%)
Language : English
Default : Yes
Forced : No

Text
ID : 3
Format : UTF-8
Codec ID : S_TEXT/UTF8
Codec ID/Info : UTF-8 Plain Text
Duration : 1 h 24 min
Bit rate : 138 b/s
Count of elements : 2112
Stream size : 85.3 KiB (0%)
Language : English
Default : No
Forced : No

WWEs Most Wanted Treasuresv

Complete name : WWEs.Most.Wanted.Treasures.S01E09.720p.WEB.h264-BAE.mkv
Format : Matroska
Format version : Version 4
File size : 1.55 GiB
Duration : 1 h 24 min
Overall bit rate : 2 622 kb/s

Video
ID : 1
Format : AVC
Format/Info : Advanced Video
Format profile : [email protected]
Duration : 1 h 24 min
Bit rate : 2 491 kb/s
Width : 1 280 pixels
Height : 720 pixels
Display aspect ratio : 16:9
Frame rate mode : Constant
Frame rate : 23.976 (24000/1001) FPS
Color space : YUV
Chroma subsampling : 4:2:0
Bit depth : 8 bits
Scan type : Progressive
Bits/(Pixel*Frame) : 0.113
Stream size : 1.47 GiB (95%)
Language : English
Default : Yes
Forced : No
Color range : Limited
Color primaries : BT.709
Transfer characteristics : BT.709
Matrix coefficients : BT.709

WWEs Most Wanted Treasuresv

Audio
ID : 2
Format : AAC LC
Format/Info : Advanced Audio
Codec ID : A_AAC-2
Duration : 1 h 24 min
Bit rate : 128 kb/s
Channel(s) : 2 channels
Channel layout : L R
Sampling rate : 48.0 kHz
Frame rate : 46.875 FPS (1024 SPF)
Compression mode : Lossy
Stream size : 77.2 MiB (5%)
Language : English
Default : Yes
Forced : No

Text
ID : 3
Format : UTF-8
Codec ID : S_TEXT/UTF8
Codec ID/Info : UTF-8 Plain Text
Duration : 1 h 24 min
Bit rate : 138 b/s
Count of elements : 2112
Stream size : 85.3 KiB (0%)
Language : English
Default : No
Forced : No

WWEs Most Wanted Treasuresv

Complete name : WWEs.Most.Wanted.Treasures.S01E09.720p.WEB.h264-BAE.mkv
Format : Matroska
Format version : Version 4
File size : 1.55 GiB
Duration : 1 h 24 min
Overall bit rate : 2 622 kb/s

Video
ID : 1
Format : AVC
Format/Info : Advanced Video
Format profile : [email protected]
Duration : 1 h 24 min
Bit rate : 2 491 kb/s
Width : 1 280 pixels
Height : 720 pixels
Display aspect ratio : 16:9
Frame rate mode : Constant
Frame rate : 23.976 (24000/1001) FPS
Color space : YUV
Chroma subsampling : 4:2:0
Bit depth : 8 bits
Scan type : Progressive
Bits/(Pixel*Frame) : 0.113
Stream size : 1.47 GiB (95%)
Language : English
Default : Yes
Forced : No
Color range : Limited
Color primaries : BT.709
Transfer characteristics : BT.709
Matrix coefficients : BT.709

WWEs Most Wanted Treasuresv

Audio
ID : 2
Format : AAC LC
Format/Info : Advanced Audio
Codec ID : A_AAC-2
Duration : 1 h 24 min
Bit rate : 128 kb/s
Channel(s) : 2 channels
Channel layout : L R
Sampling rate : 48.0 kHz
Frame rate : 46.875 FPS (1024 SPF)
Compression mode : Lossy
Stream size : 77.2 MiB (5%)
Language : English
Default : Yes
Forced : No

Text
ID : 3
Format : UTF-8
Codec ID : S_TEXT/UTF8
Codec ID/Info : UTF-8 Plain Text
Duration : 1 h 24 min
Bit rate : 138 b/s
Count of elements : 2112
Stream size : 85.3 KiB (0%)
Language : English
Default : No
Forced : No

WWEs Most Wanted Treasuresv

Complete name : WWEs.Most.Wanted.Treasures.S01E09.720p.WEB.h264-BAE.mkv
Format : Matroska
Format version : Version 4
File size : 1.55 GiB
Duration : 1 h 24 min
Overall bit rate : 2 622 kb/s

Video
ID : 1
Format : AVC
Format/Info : Advanced Video
Format profile : [email protected]
Duration : 1 h 24 min
Bit rate : 2 491 kb/s
Width : 1 280 pixels
Height : 720 pixels
Display aspect ratio : 16:9
Frame rate mode : Constant
Frame rate : 23.976 (24000/1001) FPS
Color space : YUV
Chroma subsampling : 4:2:0
Bit depth : 8 bits
Scan type : Progressive
Bits/(Pixel*Frame) : 0.113
Stream size : 1.47 GiB (95%)
Language : English
Default : Yes
Forced : No
Color range : Limited
Color primaries : BT.709
Transfer characteristics : BT.709
Matrix coefficients : BT.709

WWEs Most Wanted Treasuresv

Audio
ID : 2
Format : AAC LC
Format/Info : Advanced Audio
Codec ID : A_AAC-2
Duration : 1 h 24 min
Bit rate : 128 kb/s
Channel(s) : 2 channels
Channel layout : L R
Sampling rate : 48.0 kHz
Frame rate : 46.875 FPS (1024 SPF)
Compression mode : Lossy
Stream size : 77.2 MiB (5%)
Language : English
Default : Yes
Forced : No

Text
ID : 3
Format : UTF-8
Codec ID : S_TEXT/UTF8
Codec ID/Info : UTF-8 Plain Text
Duration : 1 h 24 min
Bit rate : 138 b/s
Count of elements : 2112
Stream size : 85.3 KiB (0%)
Language : English
Default : No
Forced : No

WWEs Most Wanted Treasuresv

Complete name : WWEs.Most.Wanted.Treasures.S01E09.720p.WEB.h264-BAE.mkv
Format : Matroska
Format version : Version 4
File size : 1.55 GiB
Duration : 1 h 24 min
Overall bit rate : 2 622 kb/s

Video
ID : 1
Format : AVC
Format/Info : Advanced Video
Format profile : [email protected]
Duration : 1 h 24 min
Bit rate : 2 491 kb/s
Width : 1 280 pixels
Height : 720 pixels
Display aspect ratio : 16:9
Frame rate mode : Constant
Frame rate : 23.976 (24000/1001) FPS
Color space : YUV
Chroma subsampling : 4:2:0
Bit depth : 8 bits
Scan type : Progressive
Bits/(Pixel*Frame) : 0.113
Stream size : 1.47 GiB (95%)
Language : English
Default : Yes
Forced : No
Color range : Limited
Color primaries : BT.709
Transfer characteristics : BT.709
Matrix coefficients : BT.709

WWEs Most Wanted Treasuresv

Audio
ID : 2
Format : AAC LC
Format/Info : Advanced Audio
Codec ID : A_AAC-2
Duration : 1 h 24 min
Bit rate : 128 kb/s
Channel(s) : 2 channels
Channel layout : L R
Sampling rate : 48.0 kHz
Frame rate : 46.875 FPS (1024 SPF)
Compression mode : Lossy
Stream size : 77.2 MiB (5%)
Language : English
Default : Yes
Forced : No

Text
ID : 3
Format : UTF-8
Codec ID : S_TEXT/UTF8
Codec ID/Info : UTF-8 Plain Text
Duration : 1 h 24 min
Bit rate : 138 b/s
Count of elements : 2112
Stream size : 85.3 KiB (0%)
Language : English
Default : No
Forced : No

WWEs Most Wanted Treasuresv

Complete name : WWEs.Most.Wanted.Treasures.S01E09.720p.WEB.h264-BAE.mkv
Format : Matroska
Format version : Version 4
File size : 1.55 GiB
Duration : 1 h 24 min
Overall bit rate : 2 622 kb/s

Video
ID : 1
Format : AVC
Format/Info : Advanced Video
Format profile : [email protected]
Duration : 1 h 24 min
Bit rate : 2 491 kb/s
Width : 1 280 pixels
Height : 720 pixels
Display aspect ratio : 16:9
Frame rate mode : Constant
Frame rate : 23.976 (24000/1001) FPS
Color space : YUV
Chroma subsampling : 4:2:0
Bit depth : 8 bits
Scan type : Progressive
Bits/(Pixel*Frame) : 0.113
Stream size : 1.47 GiB (95%)
Language : English
Default : Yes
Forced : No
Color range : Limited
Color primaries : BT.709
Transfer characteristics : BT.709
Matrix coefficients : BT.709

WWEs Most Wanted Treasuresv

Audio
ID : 2
Format : AAC LC
Format/Info : Advanced Audio
Codec ID : A_AAC-2
Duration : 1 h 24 min
Bit rate : 128 kb/s
Channel(s) : 2 channels
Channel layout : L R
Sampling rate : 48.0 kHz
Frame rate : 46.875 FPS (1024 SPF)
Compression mode : Lossy
Stream size : 77.2 MiB (5%)
Language : English
Default : Yes
Forced : No

Text
ID : 3
Format : UTF-8
Codec ID : S_TEXT/UTF8
Codec ID/Info : UTF-8 Plain Text
Duration : 1 h 24 min
Bit rate : 138 b/s
Count of elements : 2112
Stream size : 85.3 KiB (0%)
Language : English
Default : No
Forced : No

WWEs Most Wanted Treasuresv

Complete name : WWEs.Most.Wanted.Treasures.S01E09.720p.WEB.h264-BAE.mkv
Format : Matroska
Format version : Version 4
File size : 1.55 GiB
Duration : 1 h 24 min
Overall bit rate : 2 622 kb/s

Video
ID : 1
Format : AVC
Format/Info : Advanced Video
Format profile : [email protected]
Duration : 1 h 24 min
Bit rate : 2 491 kb/s
Width : 1 280 pixels
Height : 720 pixels
Display aspect ratio : 16:9
Frame rate mode : Constant
Frame rate : 23.976 (24000/1001) FPS
Color space : YUV
Chroma subsampling : 4:2:0
Bit depth : 8 bits
Scan type : Progressive
Bits/(Pixel*Frame) : 0.113
Stream size : 1.47 GiB (95%)
Language : English
Default : Yes
Forced : No
Color range : Limited
Color primaries : BT.709
Transfer characteristics : BT.709
Matrix coefficients : BT.709

WWEs Most Wanted Treasuresv

Audio
ID : 2
Format : AAC LC
Format/Info : Advanced Audio
Codec ID : A_AAC-2
Duration : 1 h 24 min
Bit rate : 128 kb/s
Channel(s) : 2 channels
Channel layout : L R
Sampling rate : 48.0 kHz
Frame rate : 46.875 FPS (1024 SPF)
Compression mode : Lossy
Stream size : 77.2 MiB (5%)
Language : English
Default : Yes
Forced : No

Text
ID : 3
Format : UTF-8
Codec ID : S_TEXT/UTF8
Codec ID/Info : UTF-8 Plain Text
Duration : 1 h 24 min
Bit rate : 138 b/s
Count of elements : 2112
Stream size : 85.3 KiB (0%)
Language : English
Default : No
Forced : No

WWEs Most Wanted Treasuresv

Complete name : WWEs.Most.Wanted.Treasures.S01E09.720p.WEB.h264-BAE.mkv
Format : Matroska
Format version : Version 4
File size : 1.55 GiB
Duration : 1 h 24 min
Overall bit rate : 2 622 kb/s

Video
ID : 1
Format : AVC
Format/Info : Advanced Video
Format profile : [email protected]
Duration : 1 h 24 min
Bit rate : 2 491 kb/s
Width : 1 280 pixels
Height : 720 pixels
Display aspect ratio : 16:9
Frame rate mode : Constant
Frame rate : 23.976 (24000/1001) FPS
Color space : YUV
Chroma subsampling : 4:2:0
Bit depth : 8 bits
Scan type : Progressive
Bits/(Pixel*Frame) : 0.113
Stream size : 1.47 GiB (95%)
Language : English
Default : Yes
Forced : No
Color range : Limited
Color primaries : BT.709
Transfer characteristics : BT.709
Matrix coefficients : BT.709

WWEs Most Wanted Treasuresv

Audio
ID : 2
Format : AAC LC
Format/Info : Advanced Audio
Codec ID : A_AAC-2
Duration : 1 h 24 min
Bit rate : 128 kb/s
Channel(s) : 2 channels
Channel layout : L R
Sampling rate : 48.0 kHz
Frame rate : 46.875 FPS (1024 SPF)
Compression mode : Lossy
Stream size : 77.2 MiB (5%)
Language : English
Default : Yes
Forced : No

Text
ID : 3
Format : UTF-8
Codec ID : S_TEXT/UTF8
Codec ID/Info : UTF-8 Plain Text
Duration : 1 h 24 min
Bit rate : 138 b/s
Count of elements : 2112
Stream size : 85.3 KiB (0%)
Language : English
Default : No
Forced : No

WWEs Most Wanted Treasuresv

Complete name : WWEs.Most.Wanted.Treasures.S01E09.720p.WEB.h264-BAE.mkv
Format : Matroska
Format version : Version 4
File size : 1.55 GiB
Duration : 1 h 24 min
Overall bit rate : 2 622 kb/s

Video
ID : 1
Format : AVC
Format/Info : Advanced Video
Format profile : [email protected]
Duration : 1 h 24 min
Bit rate : 2 491 kb/s
Width : 1 280 pixels
Height : 720 pixels
Display aspect ratio : 16:9
Frame rate mode : Constant
Frame rate : 23.976 (24000/1001) FPS
Color space : YUV
Chroma subsampling : 4:2:0
Bit depth : 8 bits
Scan type : Progressive
Bits/(Pixel*Frame) : 0.113
Stream size : 1.47 GiB (95%)
Language : English
Default : Yes
Forced : No
Color range : Limited
Color primaries : BT.709
Transfer characteristics : BT.709
Matrix coefficients : BT.709

WWEs Most Wanted Treasuresv

Audio
ID : 2
Format : AAC LC
Format/Info : Advanced Audio
Codec ID : A_AAC-2
Duration : 1 h 24 min
Bit rate : 128 kb/s
Channel(s) : 2 channels
Channel layout : L R
Sampling rate : 48.0 kHz
Frame rate : 46.875 FPS (1024 SPF)
Compression mode : Lossy
Stream size : 77.2 MiB (5%)
Language : English
Default : Yes
Forced : No

Text
ID : 3
Format : UTF-8
Codec ID : S_TEXT/UTF8
Codec ID/Info : UTF-8 Plain Text
Duration : 1 h 24 min
Bit rate : 138 b/s
Count of elements : 2112
Stream size : 85.3 KiB (0%)
Language : English
Default : No
Forced : No

WWEs Most Wanted Treasuresv

Complete name : WWEs.Most.Wanted.Treasures.S01E09.720p.WEB.h264-BAE.mkv
Format : Matroska
Format version : Version 4
File size : 1.55 GiB
Duration : 1 h 24 min
Overall bit rate : 2 622 kb/s

Video
ID : 1
Format : AVC
Format/Info : Advanced Video
Format profile : [email protected]
Duration : 1 h 24 min
Bit rate : 2 491 kb/s
Width : 1 280 pixels
Height : 720 pixels
Display aspect ratio : 16:9
Frame rate mode : Constant
Frame rate : 23.976 (24000/1001) FPS
Color space : YUV
Chroma subsampling : 4:2:0
Bit depth : 8 bits
Scan type : Progressive
Bits/(Pixel*Frame) : 0.113
Stream size : 1.47 GiB (95%)
Language : English
Default : Yes
Forced : No
Color range : Limited
Color primaries : BT.709
Transfer characteristics : BT.709
Matrix coefficients : BT.709

WWEs Most Wanted Treasuresv

Audio
ID : 2
Format : AAC LC
Format/Info : Advanced Audio
Codec ID : A_AAC-2
Duration : 1 h 24 min
Bit rate : 128 kb/s
Channel(s) : 2 channels
Channel layout : L R
Sampling rate : 48.0 kHz
Frame rate : 46.875 FPS (1024 SPF)
Compression mode : Lossy
Stream size : 77.2 MiB (5%)
Language : English
Default : Yes
Forced : No

Text
ID : 3
Format : UTF-8
Codec ID : S_TEXT/UTF8
Codec ID/Info : UTF-8 Plain Text
Duration : 1 h 24 min
Bit rate : 138 b/s
Count of elements : 2112
Stream size : 85.3 KiB (0%)
Language : English
Default : No
Forced : No

WWEs Most Wanted Treasuresv

Complete name : WWEs.Most.Wanted.Treasures.S01E09.720p.WEB.h264-BAE.mkv
Format : Matroska
Format version : Version 4
File size : 1.55 GiB
Duration : 1 h 24 min
Overall bit rate : 2 622 kb/s

Video
ID : 1
Format : AVC
Format/Info : Advanced Video
Format profile : [email protected]
Duration : 1 h 24 min
Bit rate : 2 491 kb/s
Width : 1 280 pixels
Height : 720 pixels
Display aspect ratio : 16:9
Frame rate mode : Constant
Frame rate : 23.976 (24000/1001) FPS
Color space : YUV
Chroma subsampling : 4:2:0
Bit depth : 8 bits
Scan type : Progressive
Bits/(Pixel*Frame) : 0.113
Stream size : 1.47 GiB (95%)
Language : English
Default : Yes
Forced : No
Color range : Limited
Color primaries : BT.709
Transfer characteristics : BT.709
Matrix coefficients : BT.709

WWEs Most Wanted Treasuresv

Audio
ID : 2
Format : AAC LC
Format/Info : Advanced Audio
Codec ID : A_AAC-2
Duration : 1 h 24 min
Bit rate : 128 kb/s
Channel(s) : 2 channels
Channel layout : L R
Sampling rate : 48.0 kHz
Frame rate : 46.875 FPS (1024 SPF)
Compression mode : Lossy
Stream size : 77.2 MiB (5%)
Language : English
Default : Yes
Forced : No

Text
ID : 3
Format : UTF-8
Codec ID : S_TEXT/UTF8
Codec ID/Info : UTF-8 Plain Text
Duration : 1 h 24 min
Bit rate : 138 b/s
Count of elements : 2112
Stream size : 85.3 KiB (0%)
Language : English
Default : No
Forced : No

WWEs Most Wanted Treasuresv

Complete name : WWEs.Most.Wanted.Treasures.S01E09.720p.WEB.h264-BAE.mkv
Format : Matroska
Format version : Version 4
File size : 1.55 GiB
Duration : 1 h 24 min
Overall bit rate : 2 622 kb/s

Video
ID : 1
Format : AVC
Format/Info : Advanced Video
Format profile : [email protected]
Duration : 1 h 24 min
Bit rate : 2 491 kb/s
Width : 1 280 pixels
Height : 720 pixels
Display aspect ratio : 16:9
Frame rate mode : Constant
Frame rate : 23.976 (24000/1001) FPS
Color space : YUV
Chroma subsampling : 4:2:0
Bit depth : 8 bits
Scan type : Progressive
Bits/(Pixel*Frame) : 0.113
Stream size : 1.47 GiB (95%)
Language : English
Default : Yes
Forced : No
Color range : Limited
Color primaries : BT.709
Transfer characteristics : BT.709
Matrix coefficients : BT.709

WWEs Most Wanted Treasuresv

Audio
ID : 2
Format : AAC LC
Format/Info : Advanced Audio
Codec ID : A_AAC-2
Duration : 1 h 24 min
Bit rate : 128 kb/s
Channel(s) : 2 channels
Channel layout : L R
Sampling rate : 48.0 kHz
Frame rate : 46.875 FPS (1024 SPF)
Compression mode : Lossy
Stream size : 77.2 MiB (5%)
Language : English
Default : Yes
Forced : No

Text
ID : 3
Format : UTF-8
Codec ID : S_TEXT/UTF8
Codec ID/Info : UTF-8 Plain Text
Duration : 1 h 24 min
Bit rate : 138 b/s
Count of elements : 2112
Stream size : 85.3 KiB (0%)
Language : English
Default : No
Forced : No

WWEs Most Wanted Treasuresv

Complete name : WWEs.Most.Wanted.Treasures.S01E09.720p.WEB.h264-BAE.mkv
Format : Matroska
Format version : Version 4
File size : 1.55 GiB
Duration : 1 h 24 min
Overall bit rate : 2 622 kb/s

Video
ID : 1
Format : AVC
Format/Info : Advanced Video
Format profile : [email protected]
Duration : 1 h 24 min
Bit rate : 2 491 kb/s
Width : 1 280 pixels
Height : 720 pixels
Display aspect ratio : 16:9
Frame rate mode : Constant
Frame rate : 23.976 (24000/1001) FPS
Color space : YUV
Chroma subsampling : 4:2:0
Bit depth : 8 bits
Scan type : Progressive
Bits/(Pixel*Frame) : 0.113
Stream size : 1.47 GiB (95%)
Language : English
Default : Yes
Forced : No
Color range : Limited
Color primaries : BT.709
Transfer characteristics : BT.709
Matrix coefficients : BT.709

WWEs Most Wanted Treasuresv

Audio
ID : 2
Format : AAC LC
Format/Info : Advanced Audio
Codec ID : A_AAC-2
Duration : 1 h 24 min
Bit rate : 128 kb/s
Channel(s) : 2 channels
Channel layout : L R
Sampling rate : 48.0 kHz
Frame rate : 46.875 FPS (1024 SPF)
Compression mode : Lossy
Stream size : 77.2 MiB (5%)
Language : English
Default : Yes
Forced : No

Text
ID : 3
Format : UTF-8
Codec ID : S_TEXT/UTF8
Codec ID/Info : UTF-8 Plain Text
Duration : 1 h 24 min
Bit rate : 138 b/s
Count of elements : 2112
Stream size : 85.3 KiB (0%)
Language : English
Default : No
Forced : No

WWEs Most Wanted Treasuresv

Complete name : WWEs.Most.Wanted.Treasures.S01E09.720p.WEB.h264-BAE.mkv
Format : Matroska
Format version : Version 4
File size : 1.55 GiB
Duration : 1 h 24 min
Overall bit rate : 2 622 kb/s

Video
ID : 1
Format : AVC
Format/Info : Advanced Video
Format profile : [email protected]
Duration : 1 h 24 min
Bit rate : 2 491 kb/s
Width : 1 280 pixels
Height : 720 pixels
Display aspect ratio : 16:9
Frame rate mode : Constant
Frame rate : 23.976 (24000/1001) FPS
Color space : YUV
Chroma subsampling : 4:2:0
Bit depth : 8 bits
Scan type : Progressive
Bits/(Pixel*Frame) : 0.113
Stream size : 1.47 GiB (95%)
Language : English
Default : Yes
Forced : No
Color range : Limited
Color primaries : BT.709
Transfer characteristics : BT.709
Matrix coefficients : BT.709

WWEs Most Wanted Treasuresv

Audio
ID : 2
Format : AAC LC
Format/Info : Advanced Audio
Codec ID : A_AAC-2
Duration : 1 h 24 min
Bit rate : 128 kb/s
Channel(s) : 2 channels
Channel layout : L R
Sampling rate : 48.0 kHz
Frame rate : 46.875 FPS (1024 SPF)
Compression mode : Lossy
Stream size : 77.2 MiB (5%)
Language : English
Default : Yes
Forced : No

Text
ID : 3
Format : UTF-8
Codec ID : S_TEXT/UTF8
Codec ID/Info : UTF-8 Plain Text
Duration : 1 h 24 min
Bit rate : 138 b/s
Count of elements : 2112
Stream size : 85.3 KiB (0%)
Language : English
Default : No
Forced : No

WWEs Most Wanted Treasuresv

 

[collapse]

 

 

https://dx-tv.com/

Leave a Reply

Your email address will not be published. Required fields are marked *

This site uses Akismet to reduce spam. Learn how your comment data is processed.