WWEs Most Wanted Treasures S01E04 Booker T 1080p

WWEs Most Wanted Treasures S01E04 Booker T 720p / 1080p DX-TV

WWEs Most Wanted Treasures S01E04

 WWEs Most Wanted Treasures S01E04

 

 

 

Download Links with High Speed


Dopapk

 

 

Show Links

 

http://shrt10.com/WKC0uPBV
http://shrt10.com/MzM2Ss

 

[collapse]

 

 

Nitroflare

 

 

Show Links

 

http://shrt10.com/7eh68s
http://shrt10.com/JkfUW3c

 

[collapse]

 

 

Rapidgator

 

 

Show Links

 

http://shrt10.com/LkHY2g
http://shrt10.com/xXmGF

 

[collapse]

 

 

Uploaded

 

 

Show Links

 

http://shrt10.com/NnnRrAs
http://shrt10.com/6ARG6YtF

 

[collapse]

 

 

Watch online

 

Server 1

 

 

 

 

watch now

 

 

 

 

Server-2

 

 

 

 

watch now

 

 

 

|Server-3

 

 

 

 

WWEs Most Wanted Treasures S01E04

 

 

Uploaded By Site DX-TV.com

 

 

Show Info This Show

 

 

Complete name : WWEs.Most.Wanted.Treasures.S01E04.Booker.T.1080p.HDTV.x264-CRiMSON.mkv
Format : Matroska
Format version : Version 4
File size : 2.83 GiB
Duration : 41 min 59 s
Overall bit rate : 9 651 kb/s

WWEs Most Wanted Treasures S01E04

Video
ID : 3
Format : AVC
Format/Info : Advanced Video
Duration : 41 min 59 s
Bit rate : 9 265 kb/s
Width : 1 920 pixels
Height : 1 080 pixels
Display aspect ratio : 16:9
Frame rate mode : Constant
Frame rate : 23.976 (24000/1001) FPS
Color space : YUV
Chroma subsampling : 4:2:0
Bit depth : 8 bits
Scan type : Progressive
Bits/(Pixel*Frame) : 0.186
Stream size : 2.72 GiB (96%)
Language : English
Default : Yes
Forced : No
Color range : Limited
Matrix coefficients : BT.709

Audio
ID : 2
Format : AC-3
Format/Info : Audio Coding 3
Commercial name : Dolby Digital
Codec ID : A_AC3
Duration : 41 min 59 s
Bit rate mode : Constant
Bit rate : 384 kb/s
Channel(s) : 6 channels
Channel layout : L R C LFE Ls Rs
Sampling rate : 48.0 kHz
Frame rate : 31.250 FPS
Compression mode : Lossy
Stream size : 115 MiB (4%)
Language : English
Service kind : Complete Main
Default : Yes
Forced : No

WWEs Most Wanted Treasures

Text
ID : 1
Format : UTF-8
Codec ID : S_TEXT/UTF8
Codec ID/Info : UTF-8 Plain Text
Duration : 41 min 56 s
Bit rate : 151 b/s
Count of elements : 1141
Stream size : 46.7 KiB (0%)
Language : English
Default : No
Forced : No

Audio
ID : 2
Format : AC-3
Format/Info : Audio Coding 3
Commercial name : Dolby Digital
Codec ID : A_AC3
Duration : 41 min 59 s
Bit rate mode : Constant
Bit rate : 384 kb/s
Channel(s) : 6 channels
Channel layout : L R C LFE Ls Rs
Sampling rate : 48.0 kHz
Frame rate : 31.250 FPS
Compression mode : Lossy
Stream size : 115 MiB (4%)
Language : English
Service kind : Complete Main
Default : Yes
Forced : No

Text
ID : 1
Format : UTF-8
Codec ID : S_TEXT/UTF8
Codec ID/Info : UTF-8 Plain Text
Duration : 41 min 56 s
Bit rate : 151 b/s
Count of elements : 1141
Stream size : 46.7 KiB (0%)
Language : English
Default : No
Forced : No

WWEs Most Wanted Treasures

Audio
ID : 2
Format : AC-3
Format/Info : Audio Coding 3
Commercial name : Dolby Digital
Codec ID : A_AC3
Duration : 41 min 59 s
Bit rate mode : Constant
Bit rate : 384 kb/s
Channel(s) : 6 channels
Channel layout : L R C LFE Ls Rs
Sampling rate : 48.0 kHz
Frame rate : 31.250 FPS
Compression mode : Lossy
Stream size : 115 MiB (4%)
Language : English
Service kind : Complete Main
Default : Yes
Forced : No

Text
ID : 1
Format : UTF-8
Codec ID : S_TEXT/UTF8
Codec ID/Info : UTF-8 Plain Text
Duration : 41 min 56 s
Bit rate : 151 b/s
Count of elements : 1141
Stream size : 46.7 KiB (0%)
Language : English
Default : No
Forced : No

 

WWEs Most Wanted Treasures

[collapse]

 

 

https://dx-tv.com/