WWE Greatest Royal Rumble PPV 1080p HDTV Multilanguage Hircus

WWE Greatest Royal Rumble PPV 1080p HDTV Multilanguage Hircus

 

 

 

 

 

 

 

 

 

dx-tv.com

 

 

 

 

 

Complete name : Wrestling WWE_ PPV_ The Greatest Royal Rumble.Sky Sport 5 HD.ts
Format : MPEG-TS
File size : 21.5 GiB
Duration : 5h 0mn
Overall bit rate : 10.3 Mbps

Video
ID : 2303 (0x8FF)
Menu ID : 288 (0x120)
Format : AVC
Format/Info : Advanced Video Codec
Codec ID : 27
Duration : 5h 0mn
Bit rate : 8 971 Kbps
Width : 1 920 pixels
Height : 1 080 pixels
Display aspect ratio : 16:9
Frame rate : 25.000 fps
Color space : YUV
Chroma subsampling : 4:2:0
Bit depth : 8 bits
Scan type : MBAFF
Scan order : Top Field First
Bits/(Pixel*Frame) : 0.173
Stream size : 18.8 GiB (87%)

Audio #1
ID : 2306 (0x902)
Menu ID : 288 (0x120)
Format : AC-3
Format/Info : Audio Coding 3
Mode extension : CM (complete main)
Codec ID : 6
Duration : 5h 0mn
Bit rate mode : Constant
Bit rate : 384 Kbps
Channel(s) : 6 channels
Sampling rate : 48.0 KHz
Bit depth : 16 bits
Compression mode : Lossy
Delay relative to video : -684ms
Stream size : 825 MiB (4%)
Language : qae
Language, more info : Clean effects

Audio #2
ID : 2307 (0x903)
Menu ID : 288 (0x120)
Format : AC-3
Format/Info : Audio Coding 3
Mode extension : CM (complete main)
Codec ID : 6
Duration : 5h 0mn
Bit rate mode : Constant
Bit rate : 192 Kbps
Channel(s) : 2 channels
Channel positions : Front: L R
Sampling rate : 48.0 KHz
Bit depth : 16 bits
Compression mode : Lossy
Delay relative to video : -460ms
Stream size : 412 MiB (2%)
Language : qaf
Language, more info : Clean effects

Audio #3
ID : 2308 (0x904)
Menu ID : 288 (0x120)
Format : AC-3
Format/Info : Audio Coding 3
Mode extension : CM (complete main)
Codec ID : 6
Duration : 5h 0mn
Bit rate mode : Constant
Bit rate : 192 Kbps
Channel(s) : 2 channels
Channel positions : Front: L R
Sampling rate : 48.0 KHz
Bit depth : 16 bits
Compression mode : Lossy
Delay relative to video : -460ms
Stream size : 412 MiB (2%)
Language : qtz
Language, more info : Clean effects

 

 

 

 

 

 

 

 

 

WWE Greatest Royal Rumble PPV 1080p HDTV Multilanguage Hircus

 

 

 

 

 

 

 

Uploaded By Site DX-TV.com

 

 

 

open rar file to see this password

 

 

 

 

The password is : DX-TV.com

 

 

 

 

1080p

 

 

 

 

 

Uploaded.net + rapidgator.net

 

 

 

 

 

http://shrt10.com/3c6TXJz

 

 

http://shrt10.com/efdTA5J1

 

 

http://shrt10.com/jMfalwe

 

 

http://shrt10.com/Hm2voY

 

 

http://shrt10.com/7q4c0K
 

 

http://shrt10.com/wSf2Jdw

 

 

http://shrt10.com/lUgLFX

 

 

http://shrt10.com/7UVtKBYs

 

 

http://shrt10.com/TAlX

 

 

http://shrt10.com/KoexL30Y

 

 

 

 

 

 

WWE Greatest Royal Rumble PPV 1080p HDTV Multilanguage Hircus