WWE WrestleMania Smackdown 2021 04 09 720p Multi 1080i

WWE WrestleMania Smackdown 2021 04 09 480p / 720p / 1080i HDTV SkY DX-TV

WWE WrestleMania Smackdown

 WWE WrestleMania Smackdown

 

 

 

Download Links with High Speed


 

Dopapk

 

 

Show Links

 

http://shrt10.com/qXAfL
http://shrt10.com/sciLm9

 

[collapse]

 

 

Nitroflare

 

 

Show Links

 

http://shrt10.com/miSAYK
http://shrt10.com/N4EtlY1
http://shrt10.com/eCe3dzHcp

 

[collapse]

 

 

Rapidgator

 

 

Show Links

 

http://shrt10.com/SEErbD7h8
http://shrt10.com/sGmat
http://shrt10.com/IgKGhb

 

[collapse]

 

 

Uploaded

 

 

Show Links

 

http://shrt10.com/iRn1Yx
http://shrt10.com/RZLuJIC

 

[collapse]

 

 

Watch online

 

Server 1

 

 

 

 

WWE WrestleMania Smackdown

 

 

 

 

Server-2

 

 

 

 

watch now

 

 

 

|Server-3

 

 

 

 

watch now

 

 

Uploaded By Site DX-TV.com

 

 

Show Info This Show

 

 

Complete name : WWE.Wrestlemania.Smackdown.2021.04.09.HDTV.720p.x264-SkY.mp4
Format : MPEG-4
Format profile : Base Media
Codec ID : isom
File size : 2.87 GiB
Duration : 1 h 27 min
Overall bit rate mode : Constant
Overall bit rate : 4 693 kb/s

WWE WrestleMania Smackdown

Video
ID : 1
Format : AVC
Format/Info : Advanced Video
Duration : 1 h 27 min
Bit rate mode : Constant
Bit rate : 4 500 kb/s
Width : 1 280 pixels
Height : 720 pixels
Display aspect ratio : 16:9
Frame rate mode : Variable
Frame rate : 29.970 (30000/1001) FPS
Minimum frame rate : 29.126 FPS
Maximum frame rate : 29.970 FPS
Color space : YUV
Chroma subsampling : 4:2:0
Bit depth : 8 bits
Scan type : Progressive
Bits/(Pixel*Frame) : 0.163
Stream size : 2.75 GiB (96%)
Color range : Limited
Color primaries : BT.709
Transfer characteristics : BT.709
Matrix coefficients : BT.709
Codec configuration box : avcC

Audio
ID : 2
Format : AAC LC
Format/Info : Advanced Audio
Codec ID : mp4a-40-2
Duration : 1 h 27 min
Bit rate mode : Constant
Bit rate : 192 kb/s
Channel(s) : 2 channels
Channel layout : L R
Sampling rate : 48.0 kHz
Frame rate : 46.875 FPS (1024 SPF)
Compression mode : Lossy
Stream size : 120 MiB (4%)
Default : Yes
Alternate group : 1

WWE WrestleMania Smackdown

Complete name : WWE.Wrestlemania.Smackdown.2021.04.09.HDTV.1080p.TS-SkY [MULTI-LANG].ts
Format : MPEG-TS
File size : 8.89 GiB
Duration : 1 h 58 min
Overall bit rate mode : Variable
Overall bit rate : 10.8 Mb/s

Video
Format : AVC
Codec ID : 27
Duration : 1 h 58 min
Bit rate : 9 083 kb/s
Width : 1 920 pixels
Height : 1 080 pixels
Display aspect ratio : 16:9
Frame rate : 29.970 (30000/1001) FPS
Color space : YUV
Chroma subsampling : 4:2:0
Bit depth : 8 bits
Scan type : Interlaced
Bits/(Pixel*Frame) : 0.146
Stream size : 7.49 GiB (84%)
Color range : Limited
Color primaries : BT.709
Transfer characteristics : BT.709
Matrix coefficients : BT.709

Audio #1
ID : 34 (0x22)
Menu ID : 1 (0x1)
Format : MPEG Audio
Format version : Version 1
Codec ID : 3
Duration : 1 h 58 min
Bit rate mode : Constant
Bit rate : 384 kb/s
Channel(s) : 2 channels
Sampling rate : 48.0 kHz
Frame rate : 41.667 FPS
Compression mode : Lossy
Delay relative to video : -487 ms
Stream size : 324 MiB (4%)
Language : English

WWE WrestleMania

Audio #2
ID : 35 (0x23)
Menu ID : 1 (0x1)
Format : MPEG Audio
Format profile : Layer 2
Codec ID : 3
Duration : 1 h 58 min
Bit rate mode : Constant
Bit rate : 384 kb/s
Channel(s) : 2 channels
Sampling rate : 48.0 kHz
Frame rate : 41.667 FPS
Compression mode : Lossy
Delay relative to video : -487 ms
Stream size : 324 MiB (4%)
Language : English

Audio #3
ID : 36 (0x24)
Menu ID : 1 (0x1)
Format : MPEG Audio
Format version : Version 1
Format profile : Layer 2
Codec ID : 3
Duration : 1 h 58 min
Bit rate mode : Constant
Bit rate : 192 kb/s
Channel(s) : 2 channels
Sampling rate : 48.0 kHz
Frame rate : 41.667 FPS
Compression mode : Lossy
Delay relative to video : -454 ms
Stream size : 162 MiB (2%)
Language : English

WWE WrestleMania

Audio #4
ID : 37 (0x25)
Menu ID : 1 (0x1)
Format : MPEG Audio
Format profile : Layer 2
Codec ID : 3
Duration : 1 h 58 min
Bit rate mode : Constant
Bit rate : 192 kb/s
Channel(s) : 2 channels
Sampling rate : 48.0 kHz
Frame rate : 41.667 FPS (1152 SPF)
Compression mode : Lossy
Delay relative to video : -420 ms
Stream size : 162 MiB (2%)
Language : English

Menu
ID : 32 (0x20)
Menu ID : 1 (0x1)
Duration : 1 h 58 min
List : 33 (0x21) (AVC) / 34 (0x22) (MPEG Audio, English) / 35 (0x23) (MPEG Audio, English) / 36 (0x24) (MPEG Audio, English) / 37 (0x25) (MPEG Audio, English)
Language : / English / English / English / English
Maximum bit rate : 200000000

Complete name : WWE.Wrestlemania.Smackdown.2021.04.09.HDTV.x264-SkY.mp4
Format : MPEG-4
Format profile : Base Media
File size : 958 MiB
Duration : 1 h 27 min
Overall bit rate mode : Variable
Overall bit rate : 1 536 kb/s

WWE WrestleMania

Video
ID : 1
Format : AVC
Format/Info : Advanced Video
Duration : 1 h 27 min
Bit rate mode : Variable
Bit rate : 1 400 kb/s
Maximum bit rate : 25.0 Mb/s
Width : 732 pixels
Height : 412 pixels
Display aspect ratio : 16:9
Frame rate mode : Variable
Frame rate : 29.970 (29970/1000) FPS
Chroma subsampling : 4:2:0
Bit depth : 8 bits
Scan type : MBAFF
Bits/(Pixel*Frame) : 0.155
Stream size : 873 MiB (91%)
Color primaries : BT.709
Transfer characteristics : BT.709
Matrix coefficients : BT.709
Codec configuration box : avcC

Audio
ID : 2
Format : AAC LC
Codec ID : mp4a-40-2
Duration : 1 h 27 min
Bit rate mode : Constant
Bit rate : 128 kb/s
Channel(s) : 2 channels
Channel layout : L R
Sampling rate : 48.0 kHz
Frame rate : 46.875 FPS (1024 SPF)
Compression mode : Lossy
Stream size : 79.8 MiB (8%)
Default : Yes
Alternate group : 1

WWE WrestleMania

 

[collapse]

 

 

https://dx-tv.com/