WWE WrestleMania Backlash 2021 720p Full Replay Free PPV

WWE WrestleMania Backlash 2021 720p Full Replay Free PPV WEB H264 DX-TV

WWE WrestleMania Backlash 2021 720p Full Replay

 WWE WrestleMania Backlash 2021 720p Full Replay

 

 

 

Download Links with High Speed


Dopapk

 

 

Show Links

 

 

Nitroflare

 

 

Show Links

 

http://shrt10.com/sz9HHD

 

[collapse]

 

 

Rapidgator

 

 

Show Links

 

http://shrt10.com/FHTDdP5h

 

[collapse]

 

 

Uploaded

 

 

Show Links

 

http://shrt10.com/8qVkX

 

[collapse]

 

 

Watch online

 

Server 1

 

 

 

 

watch now

 

 

 

 

Server-2

 

 

 

 

watch now

 

 

 

|Server-3

 

 

 

 

watch now

 

 

Uploaded By Site DX-TV.com

 

 

Show Info This Show

 

WWE WrestleMania Backlash 2021 720p Full Replay

Complete name : WWE.WrestleMania.Backlash.2021 PPV 720p WEB H264 DX-TV.com.mp4
Format : MPEG-4
Format profile : Base Media
Codec ID : isom
File size : 3.97 GiB
Duration : 3 h 3 min
Overall bit rate mode : Variable
Overall bit rate : 3 099 kb/s
Law rating : N/A

Video
ID : 1
Format : AVC
Format/Info : Advanced Video
Duration : 3 h 3 min
Bit rate mode : Variable
Bit rate : 2 965 kb/s
Maximum bit rate : 3 159 kb/s
Width : 1 280 pixels
Height : 720 pixels
Display aspect ratio : 16:9
Frame rate mode : Variable
Frame rate : 30.000 FPS
Minimum frame rate : 29.412 FPS
Maximum frame rate : 30.303 FPS
Standard : NTSC
Color space : YUV
Chroma subsampling : 4:2:0
Bit depth : 8 bits
Scan type : Progressive
Bits/(Pixel*Frame) : 0.107
Stream size : 3.80 GiB (96%)
Color range : Limited
Color primaries : BT.709
Transfer characteristics : BT.709
Matrix coefficients : BT.709
Codec configuration box : avcC

WWE WrestleMania Backlash 2021 720p

Audio
ID : 2
Format : AAC LC
Format/Info : Advanced Audio
Codec ID : mp4a-40-2
Duration : 3 h 3 min
Bit rate mode : Constant
Bit rate : 125 kb/s
Channel(s) : 2 channels
Channel layout : L R
Sampling rate : 48.0 kHz
Frame rate : 46.875 FPS (1024 SPF)
Compression mode : Lossy
Stream size : 165 MiB (4%)
Default : Yes
Alternate group : 1

Text #1
ID : 1-CC1
Format : EIA-608
Muxing mode : SCTE 128 / DTVCC Transport
Muxing mode, more info : Muxed in Video #1
Duration : 3 h 3 min
Bit rate mode : Constant
Stream size : 0.00 Byte (0%)
CaptionServiceName : CC1

Text #2
ID : 1-CC3
Format : EIA-608
Muxing mode : SCTE 128 / DTVCC Transport
Muxing mode, more info : Muxed in Video #1
Duration : 3 h 3 min
Bit rate mode : Constant
Stream size : 0.00 Byte (0%)
CaptionServiceName : CC3

WWE WrestleMania Backlash 2021 720p

Text #3
ID : 1-1
Format : EIA-708
Muxing mode : SCTE 128 / DTVCC Transport
Muxing mode, more info : Muxed in Video #1
Duration : 3 h 3 min
Bit rate mode : Constant
Stream size : 0.00 Byte (0%)

Text #4
ID : 1-2
Format : EIA-708
Muxing mode : SCTE 128 / DTVCC Transport
Muxing mode, more info : Muxed in Video #1
Duration : 3 h 3 min
Bit rate mode : Constant
Stream size : 0.00 Byte (0%)

WWE WrestleMania Backlash 2021 720p

 

[collapse]

 

 

https://dx-tv.com/

Leave a Reply

Your email address will not be published. Required fields are marked *

This site uses Akismet to reduce spam. Learn how your comment data is processed.