WWE WrestleMania 37 Kickoff Night 1 1080p Online Replay

WWE WrestleMania 37 Kickoff Night 1 Full Show Online Replay 720p/ 1080p DX-TV

WWE WrestleMania 37 Kickoff Night 1

 WWE WrestleMania 37 Kickoff Night 1

 

 

 

Download Links with High Speed


Dopapk

 

 

Show Links

 

 

Nitroflare

 

 

Show Links

 

http://shrt10.com/oRLXZ

 

[collapse]

 

 

Rapidgator

 

 

Show Links

 

http://shrt10.com/uQKFf

 

[collapse]

 

 

Uploaded

 

 

Show Links

 

http://shrt10.com/4SUEm

 

[collapse]

 

 

Watch online

 

Server 1

 

 

 

 

WWE WrestleMania 37

 

 

 

 

Server-2

 

 

 

 

watch now

 

 

 

|Server-3

 

 

 

 

watch now

 

 

Uploaded By Site DX-TV.com

 

 

Show Info This Show

 

 

Complete name : WWE.WrestleMania.37.Night.1.Kickoff.720p.WEB.h264-HEEL.mp4
Format : MPEG-4
Format profile : Base Media
Codec ID : isom
File size : 1.74 GiB
Duration : 59 min 54 s
Overall bit rate mode : Variable
Overall bit rate : 4 155 kb/s
Law rating : N/A

WWE WrestleMania 37

Video
ID : 1
Format : AVC
Format/Info : Advanced Video
Duration : 59 min 54 s
Bit rate : 4 020 kb/s
Width : 1 280 pixels
Height : 720 pixels
Display aspect ratio : 16:9
Frame rate mode : Variable
Frame rate : 30.000 FPS
Minimum frame rate : 29.412 FPS
Maximum frame rate : 30.303 FPS
Color space : YUV
Chroma subsampling : 4:2:0
Bit depth : 8 bits
Scan type : Progressive
Bits/(Pixel*Frame) : 0.145
Stream size : 1.68 GiB (97%)
Codec configuration box : avcC

Audio
ID : 2
Format : AAC LC
Format/Info : Advanced Audio
Codec ID : mp4a-40-2
Duration : 59 min 53 s
Bit rate mode : Variable
Bit rate : 125 kb/s
Maximum bit rate : 134 kb/s
Channel(s) : 2 channels
Channel layout : L R
Sampling rate : 48.0 kHz
Frame rate : 46.875 FPS (1024 SPF)
Compression mode : Lossy
Stream size : 53.7 MiB (3%)
Default : Yes
Alternate group : 1

WWE WrestleMania 37

Text #1
ID : 1-CC1
Format : EIA-608
Muxing mode : SCTE 128 / DTVCC Transport
Muxing mode, more info : Muxed in Video #1
Duration : 59 min 54 s
Bit rate mode : Constant
Stream size : 0.00 Byte (0%)
CaptionServiceName : CC1

Text #2
ID : 1-T1
Format : EIA-608
Muxing mode : SCTE 128 / DTVCC Transport
Muxing mode, more info : Muxed in Video #1
Duration : 59 min 54 s
Bit rate mode : Constant
Stream size : 0.00 Byte (0%)
CaptionServiceName : T1

WWE WrestleMania 37

Text #3
ID : 1-CC3
Format : EIA-608
Muxing mode : SCTE 128 / DTVCC Transport
Muxing mode, more info : Muxed in Video #1
Duration : 59 min 54 s
Bit rate mode : Constant
Stream size : 0.00 Byte (0%)
CaptionServiceName : CC3

WWE WrestleMania 37

Text #4
ID : 1-1
Format : EIA-708
Muxing mode : SCTE 128 / DTVCC Transport
Muxing mode, more info : Muxed in Video #1
Duration : 59 min 54 s
Bit rate mode : Constant
Stream size : 0.00 Byte (0%)

Text #5
ID : 1-2
Format : EIA-708
Muxing mode : SCTE 128 / DTVCC Transport
Muxing mode, more info : Muxed in Video #1
Duration : 59 min 54 s
Bit rate mode : Constant
Stream size : 0.00 Byte (0%)

WWE WrestleMania 37

 

[collapse]

 

 

https://dx-tv.com/