WWE WrestleMania 37 720p Night 2 PPV Free Online

WWE WrestleMania 37 720p Night 2 PPV Free Online HEEL DX-TV

WWE WrestleMania 37 720p

 WWE WrestleMania 37 720p

 

 

 

Download Links with High Speed


Dopapk

 

 

Show Links

 

http://shrt10.com/fr5u2CIrG
http://shrt10.com/p6prpAE

 

[collapse]

 

 

Nitroflare

 

 

Show Links

 

http://shrt10.com/HYy209
http://shrt10.com/UKBunCKj

 

[collapse]

 

 

Rapidgator

 

 

Show Links

 

http://shrt10.com/EwNQi7Ov
http://shrt10.com/OoEuCvIea

 

[collapse]

 

 

Uploaded

 

 

Show Links

 

http://shrt10.com/ie1IX9C

 

[collapse]

 

 

Watch online

 

Server 1

 

 

 

 

watch now

 

 

 

 

Server-2

 

 

 

 

WWE WrestleMania 37 720p

 

 

 

|Server-3

 

 

 

 

watch now

 

 

Uploaded By Site DX-TV.com

 

 

Show Info This Show

 

 

Complete name : WWE.WrestleMania.37.Night.2.PPV.720p.WEB.h264-HEEL.mp4
Format : MPEG-4
Format profile : Base Media
Codec ID : isom
File size : 5.91 GiB
Duration : 3 h 18 min
Overall bit rate mode : Variable
Overall bit rate : 4 264 kb/s
Law rating : N/A

WWE WrestleMania 37 720p

Video
ID : 1
Format : AVC
Duration : 3 h 18 min
Bit rate : 4 126 kb/s
Width : 1 280 pixels
Height : 720 pixels
Display aspect ratio : 16:9
Frame rate mode : Variable
Frame rate : 30.000 FPS
Minimum frame rate : 29.412 FPS
Maximum frame rate : 30.303 FPS
Color space : YUV
Chroma subsampling : 4:2:0
Bit depth : 8 bits
Scan type : Progressive
Bits/(Pixel*Frame) : 0.149
Stream size : 5.72 GiB (97%)
Codec configuration box : avcC

Audio
ID : 2
Format : AAC LC
Codec ID : mp4a-40-2
Duration : 3 h 18 min
Bit rate mode : Variable
Bit rate : 125 kb/s
Maximum bit rate : 130 kb/s
Channel(s) : 2 channels
Channel layout : L R
Sampling rate : 48.0 kHz
Frame rate : 46.875 FPS (1024 SPF)
Compression mode : Lossy
Stream size : 178 MiB (3%)
Default : Yes
Alternate group : 1

WWE WrestleMania 37

Text #1
ID : 1-CC1
Format : EIA-608
Muxing mode : SCTE 128 / DTVCC Transport
Muxing mode, more info : Muxed in Video #1
Duration : 3 h 18 min
Bit rate mode : Constant
Stream size : 0.00 Byte (0%)
CaptionServiceName : CC1

Text #2
ID : 1-CC3
Format : EIA-608
Muxing mode : SCTE 128 / DTVCC Transport
Muxing mode, more info : Muxed in Video #1
Duration : 3 h 18 min
Bit rate mode : Constant
Stream size : 0.00 Byte (0%)
CaptionServiceName : CC3

Text #3
ID : 1-1
Format : EIA-708
Muxing mode : SCTE 128 / DTVCC Transport
Muxing mode, more info : Muxed in Video #1
Duration : 3 h 18 min
Bit rate mode : Constant
Stream size : 0.00 Byte (0%)

WWE WrestleMania 37

Text #4
ID : 1-2
Format : EIA-708
Muxing mode : SCTE 128 / DTVCC Transport
Muxing mode, more info : Muxed in Video #1
Duration : 3 h 18 min
Bit rate mode : Constant
Stream size : 0.00 Byte (0%)

Complete name : WWE.WrestleMania.37.Night.2.PPV.WEB.h264-HEEL.mp4
Format : MPEG-4
Format profile : Base Media
Codec ID : isom
File size : 2.40 GiB
Duration : 3 h 18 min
Overall bit rate mode : Variable
Overall bit rate : 1 729 kb/s
Law rating : N/A

WWE WrestleMania 37

Video
ID : 1
Format : AVC
Duration : 3 h 18 min
Bit rate mode : Variable
Bit rate : 1 596 kb/s
Maximum bit rate : 1 663 kb/s
Width : 896 pixels
Height : 504 pixels
Display aspect ratio : 16:9
Frame rate mode : Variable
Frame rate : 30.000 FPS
Minimum frame rate : 29.412 FPS
Maximum frame rate : 30.303 FPS
Standard : NTSC
Color space : YUV
Chroma subsampling : 4:2:0
Bit depth : 8 bits
Scan type : Progressive
Bits/(Pixel*Frame) : 0.118
Stream size : 2.21 GiB (92%)
Color range : Limited
Color primaries : BT.709
Transfer characteristics : BT.709
Matrix coefficients : BT.709
Codec configuration box : avcC

Audio
ID : 2
Format : AAC LC
Codec ID : mp4a-40-2
Duration : 3 h 18 min
Bit rate mode : Variable
Bit rate : 125 kb/s
Maximum bit rate : 133 kb/s
Channel(s) : 2 channels
Channel layout : L R
Sampling rate : 48.0 kHz
Frame rate : 46.875 FPS (1024 SPF)
Compression mode : Lossy
Stream size : 178 MiB (7%)
Default : Yes
Alternate group : 1

WWE WrestleMania 37

Text #1
ID : 1-CC1
Format : EIA-608
Muxing mode : SCTE 128 / DTVCC Transport
Muxing mode, more info : Muxed in Video #1
Duration : 3 h 18 min
Bit rate mode : Constant
Stream size : 0.00 Byte (0%)
CaptionServiceName : CC1

Text #2
ID : 1-CC3
Format : EIA-608
Muxing mode : SCTE 128 / DTVCC Transport
Muxing mode, more info : Muxed in Video #1
Duration : 3 h 18 min
Bit rate mode : Constant
Stream size : 0.00 Byte (0%)
CaptionServiceName : CC3

Text #3
ID : 1-1
Format : EIA-708
Muxing mode : SCTE 128 / DTVCC Transport
Muxing mode, more info : Muxed in Video #1
Duration : 3 h 18 min
Bit rate mode : Constant
Stream size : 0.00 Byte (0%)

Text #4
ID : 1-2
Format : EIA-708
Muxing mode : SCTE 128 / DTVCC Transport
Muxing mode, more info : Muxed in Video #1
Duration : 3 h 18 min
Bit rate mode : Constant
Stream size : 0.00 Byte (0%)

 

WWE WrestleMania 37

[collapse]

 

 

https://dx-tv.com/