WWE WrestleMania 34 PPV HDTV Ebi Watch / Download

WWE WrestleMania 34 PPV HDTV Ebi Watch / Download

 

 

 

 

 

wwe

 

 

 

 

 

 
Complete name : WWE.WrestleMania.34.PPV.HDTV.x264-Ebi.mp4
Format : MPEG-4
Format profile : Base Media / Version 2
Codec ID : mp42
File size : 3.19 GiB
Duration : 5h 10mn
Overall bit rate : 1 471 Kbps
Encoded date : UTC 2018-04-09 05:07:08
Tagged date : UTC 2018-04-09 05:07:08

Video
ID : 1
Format : AVC
Format/Info : Advanced Video Codec
Format profile : High@L3.1
Codec ID : avc1
Codec ID/Info : Advanced Video Coding
Duration : 5h 10mn
Bit rate mode : Variable
Bit rate : 1 300 Kbps
Width : 712 pixels
Height : 400 pixels
Display aspect ratio : 16:9
Frame rate mode : Constant
Frame rate : 29.970 fps
Color space : YUV
Chroma subsampling : 4:2:0
Bit depth : 8 bits
Scan type : Progressive
Bits/(Pixel*Frame) : 0.152
Stream size : 2.83 GiB (89%)
Audio
ID : 2
Format : AAC
Format/Info : Advanced Audio Codec
Format profile : LC
Codec ID : 40
Duration : 5h 10mn
Bit rate mode : Variable
Bit rate : 160 Kbps
Channel(s) : 2 channels
Channel positions : Front: L R
Sampling rate : 48.0 KHz
Compression mode : Lossy
Stream size : 356 MiB (11%)
Title : Stereo
Encoded date : UTC 2018-04-09 05:07:08
Tagged date : UTC 2018-04-09 05:07:08

 

 

 

 

 

 

 

WWE WrestleMania 34 PPV HDTV Ebi Watch / Download

 

 

 

 

Watch online

 

 

Waiting finish converting video

 

 

Server 1

 

 

 

 

 

 

 

 

 

 

 

 

 

 

 

 

 

Server 2

 

 

 

 

 

 


 

 

 

 

Uploaded By Site DX-TV.com

 

 

 

open rar file to see this password

 

 

 

 

The password is : DX-TV.com

 

 

 

 

400p

 

 

 

 

 

Uploaded.net + rapidgator.net

 

 

 

 

 

 

http://shrt10.com/7yHY7Q

 

 

 

 

 

http://shrt10.com/ru3L3a

 

 

 

 

 

 

 

 

 

WWE WrestleMania 34 PPV HDTV Ebi Watch / Download