WWE Wrestlemania 34 2018 PPV 1080p HDTV Multilanguage Hircus

WWE Wrestlemania 34 2018 PPV 1080p HDTV Multilanguage Hircus

 

 

 

 

 

wwe

 

 

 

 

 

 

Complete name : Sky Sport 3 HD – Wrestling WWE_ PPV_ WrestleMania 34_1080p_English-German.ts
Format : MPEG-TS
File size : 22.4 GiB
Duration : 5h 10mn
Overall bit rate : 10.3 Mbps

Video
Format : AVC
Format/Info : Advanced Video Codec
Format profile : High@L4.0
Duration : 5h 10mn
Bit rate : 8 898 Kbps
Width : 1 920 pixels
Height : 1 080 pixels
Display aspect ratio : 16:9
Frame rate : 25.000 fps
Standard : Component
Color space : YUV
Chroma subsampling : 4:2:0
Bit depth : 8 bits
Scan type : Interlaced
Scan order : Top Field First
Bits/(Pixel*Frame) : 0.172

Audio #1
Format : AC-3
Mode extension : CM (complete main)
Codec ID : 6
Duration : 5h 10mn
Bit rate mode : Constant
Bit rate : 384 Kbps
Channel(s) : 6 channels
Sampling rate : 48.0 KHz
Bit depth : 16 bits
Compression mode : Lossy
Delay relative to video : -1s 96ms
Stream size : 854 MiB (4%)
Language : qae
Language, more info : Clean effects

Audio #2
Format : AC-3
Mode extension : CM (complete main)
Codec ID : 6
Duration : 5h 10mn
Bit rate mode : Constant
Bit rate : 256 Kbps
Channel(s) : 2 channels
Channel positions : Front: L R
Sampling rate : 48.0 KHz
Bit depth : 16 bits
Compression mode : Lossy
Delay relative to video : -1s 96ms
Stream size : 569 MiB (2%)
Language : qaf
Language, more info : Clean effects

Audio #3
Format : AC-3
Mode extension : CM (complete main)
Codec ID : 6
Duration : 5h 10mn
Bit rate mode : Constant
Bit rate : 256 Kbps
Channel(s) : 2 channels
Channel positions : Front: L R
Sampling rate : 48.0 KHz
Bit depth : 16 bits
Compression mode : Lossy
Delay relative to video : -1s 96ms
Stream size : 569 MiB (2%)
Language : qtz
Language, more info : Clean effects
 

 

 

 

 

 

 

 

 

 

 

 

 

 

 

 

 

WWE Wrestlemania 34 2018 PPV 1080p HDTV Multilanguage Hircus

 

 

 

 

 

 

Uploaded By Site DX-TV.com

 

 

 

open rar file to see this password

 

 

 

 

The password is : DX-TV.com

 

 

 

 

1080p

 

 

 

 

 

Uploaded.net + rapidgator.net

 

 

 

 

 

http://shrt10.com/7BHx

 

 

http://shrt10.com/Abz0Z1x7

 

 

http://shrt10.com/vUQem

 

 

http://shrt10.com/SdLHBVik

 

 

http://shrt10.com/Y36H

 

 

http://shrt10.com/WllF

 

 

http://shrt10.com/8Y9CKi

 

 

http://shrt10.com/rGBFgj

 

 

http://shrt10.com/sc5Ux

 

 

http://shrt10.com/mcGbfW

 

 

http://shrt10.com/CNnX

 

 

http://shrt10.com/cd32

 

http://shrt10.com/gaS7T

 

 

http://shrt10.com/Re2TUig

 

 

http://shrt10.com/GeK10Xf

 

 

http://shrt10.com/Ku0lXMr

 

 

 

 

 

 

 

 

WWE Wrestlemania 34 2018 PPV 1080p HDTV Multilanguage Hircus