WWE Worlds Collide NXT VS NXT UK 2020 Per-Show

WWE Worlds Collide NXT VS NXT UK 720p 2020-01-25 Per- show DX-TV

 

 

WWE Raw

 

 

 

 

dx-tv.com

 

 

 

 

WWE Worlds Collide NXT VS NXT UK 720p 2020 Per-Show

 

 

 

 

 

Complete name :WWE Worlds Collide NXT VS NXT UK 720p 2020 Per-Show WEB x264 DX-TV.mp4
Format : MPEG-4
Format profile : Base Media
Codec ID : isom (mp41/avc1)
File size : 670 MiB
Duration : 20 min 42 s
Overall bit rate mode : Variable
Overall bit rate : 4 522 kb/s

Video
ID : 2
Format : AVC
Duration : 20 min 42 s
Bit rate mode : Variable
Bit rate : 4 384 kb/s
Maximum bit rate : 4 809 kb/s
Width : 1 280 pixels
Height : 720 pixels
Display aspect ratio : 16:9
Frame rate mode : Variable
Frame rate : 29.970 (29970/1000) FPS
Minimum frame rate : 1.192 FPS
Maximum frame rate : 30.303 FPS
Original frame rate : 30.000 FPS
Standard : NTSC
Color space : YUV
Chroma subsampling : 4:2:0
Bit depth : 8 bits
Scan type : Progressive
Bits/(Pixel*Frame) : 0.159
Stream size : 650 MiB (97%)
Language : English
Encoded date : UTC 2020-01-25 23:55:07
Tagged date : UTC 2020-01-25 23:55:07
Color range : Limited
Color primaries : BT.709
Transfer characteristics : BT.709
Matrix coefficients : BT.709
Codec configuration box : avcC

Audio
ID : 1
Format : AAC LC
Format/Info : Advanced Audio Codec Low Complexity
Codec ID : mp4a-40-2
Duration : 20 min 42 s
Bit rate mode : Variable
Bit rate : 125 kb/s
Maximum bit rate : 150 kb/s
Channel(s) : 2 channels
Channel layout : L R
Sampling rate : 48.0 kHz
Frame rate : 46.875 FPS (1024 SPF)
Compression mode : Lossy
Stream size : 18.6 MiB (3%)
Language : English
Encoded date : UTC 2020-01-25 23:55:07
Tagged date : UTC 2020-01-25 23:55:07

Text #1
ID : 2-CC1
Format : EIA-608
Muxing mode : SCTE 128 / DTVCC Transport
Muxing mode, more info : Muxed in Video #1
Duration : 20 min 42 s
Bit rate mode : Constant
Stream size : 0.00 Byte (0%)
CaptionServiceName : CC1

 

 

 

Watch online

 

 

Waiting finish converting video

 

 

Server 1

 

 

 

 

 

 

 

 

 

 

 

Server 2

 

 

 

 

 

 

 

 

 

 

Server–3

 

 


 

 

 

Server–4

 

 


 

 

 

WWE Worlds Collide NXT VS NXT UK 720p 2020 Per-Show

 

 

 

Uploaded By Site DX-TV.com

 

 

 

 

 

Download VIP Members FTP server Download 1 Link and Free Links 

 

 

 

Limited Time will be removed after 90 days if you need available again pm email admin

 

[member]

FTP Link Download high speed

[/member]

1fichier.com 

 

 

dailyuploads.net

 

 

DDL.to

 

 

dl.free.fr

 

 

earn4files.com

 

 

filerio.in

 

 

katfile.com

 

 

rockfile.co

 

 

Ubloadbank.com

 

 

 

Download with premium account Links 

 

 

nitroflare.com

 

 

rapidgator.net

 

 

uploaded.net

 

 

 

 

 

You May Also Like