WWE Worlds Collide NXT vs NXT UK 2020 1080p Online

WWE Worlds Collide NXT vs NXT UK Online 2020 01 25 1080p DX-TV

 

 

WWE Worlds Collide

 

 

 

 

dx-tv.com

 

 

 

 

WWE Worlds Collide NXT vs NXT UK 2020 1080p Online

 

 

 

 

 

Complete name : WWE.Worlds.Collide.2020.01.25.NXT.vs.NXT.UK.1080p.WEB.h264-HEEL.mp4
Format : MPEG-4
Format profile : Base Media
Codec ID : isom
File size : 6.05 GiB
Duration : 2 h 26 min
Overall bit rate mode : Variable
Overall bit rate : 5 900 kb/s
Writing application : Lavf58.32.104

Video
ID : 1
Format : AVC
Format/Info : Advanced Video Codec
Codec ID/Info : Advanced Video Coding
Duration : 2 h 26 min
Bit rate : 5 762 kb/s
Width : 1 920 pixels
Height : 1 080 pixels
Display aspect ratio : 16:9
Frame rate mode : Variable
Frame rate : 30.000 FPS
Minimum frame rate : 29.412 FPS
Maximum frame rate : 30.303 FPS
Color space : YUV
Chroma subsampling : 4:2:0
Bit depth : 8 bits
Scan type : Progressive
Bits/(Pixel*Frame) : 0.093
Stream size : 5.90 GiB (98%)
Codec configuration box : avcC

Audio
ID : 2
Format : AAC LC
Format/Info : Advanced Audio Codec Low Complexity
Codec ID : mp4a-40-2
Duration : 2 h 26 min
Bit rate mode : Variable
Bit rate : 125 kb/s
Maximum bit rate : 128 kb/s
Channel(s) : 2 channels
Channel layout : L R
Sampling rate : 48.0 kHz
Frame rate : 46.875 FPS (1024 SPF)
Compression mode : Lossy
Stream size : 132 MiB (2%)
Default : Yes
Alternate group : 1

Text #1
ID : 1-CC1
Format : EIA-608
Muxing mode : SCTE 128 / DTVCC Transport
Muxing mode, more info : Muxed in Video #1
Duration : 2 h 26 min
Bit rate mode : Constant
Stream size : 0.00 Byte (0%)
CaptionServiceName : CC1

Text #2
ID : 1-CC3
Format : EIA-608
Muxing mode : SCTE 128 / DTVCC Transport
Muxing mode, more info : Muxed in Video #1
Duration : 2 h 26 min
Bit rate mode : Constant
Stream size : 0.00 Byte (0%)
CaptionServiceName : CC3

Text #3
ID : 1-1
Format : EIA-708
Muxing mode : SCTE 128 / DTVCC Transport
Muxing mode, more info : Muxed in Video #1
Duration : 2 h 26 min
Bit rate mode : Constant
Stream size : 0.00 Byte (0%)

 

 

 

 

 

 

Watch online

 

 

Waiting finish converting video

 

 

Server 1

 

 

 

watch now

 

 

 

 

WWE Worlds Collide NXT vs NXT UK 2020 1080p Online

 

 

 

Uploaded By Site DX-TV.com

 

 

 

 

 

Download VIP Members FTP server Download 1 Link and Free Links 

 

 

 

Limited Time will be removed after 90 days if you need available again pm email admin

 

[member]  

FTP Link Download high speed

[/member]

1fichier.com 

 

https://shrt10.com/nYdu3

https://shrt10.com/v8zUy

https://shrt10.com/LZah26rCi

https://shrt10.com/nIAx3Vn

 

dailyuploads.net

 

https://shrt10.com/wecrcNw

https://shrt10.com/3VBeD

https://shrt10.com/AC3pN

https://shrt10.com/O8EMF

 

DDL.to

 

https://shrt10.com/I47WBDU

https://shrt10.com/P4tH74Gv

https://shrt10.com/YKLy0aBYY

https://shrt10.com/2NYYF

 

earn4files.com

 

https://shrt10.com/LGpnP8P

https://shrt10.com/VGF3wPZh

https://shrt10.com/ae4cfx

https://shrt10.com/lyClGXjgE

 

filerio.in

 

https://shrt10.com/nGAV5B

https://shrt10.com/cCFJiH

https://shrt10.com/hxiJQ8Jz

https://shrt10.com/vvpFayf0l

 

katfile.com

 

https://shrt10.com/AD3TNlZw

https://shrt10.com/xNsxglePe

https://shrt10.com/foFHDVo

https://shrt10.com/2ivbL1S

 

rockfile.co

 

https://shrt10.com/iI8YLPB
https://shrt10.com/ScZvN
https://shrt10.com/ltHryFP
https://shrt10.com/ycj5uYbl

 

Ubloadbank.com

 

https://shrt10.com/I3dt7
https://shrt10.com/lmpjE2oc
https://shrt10.com/RCoi8u
https://shrt10.com/zkwIXi

 

Download with premium account Links 

 

 

nitroflare.com

 

 

rapidgator.net

 

 

uploaded.net

 

https://shrt10.com/hYiyFCE
https://shrt10.com/7CDEfqFH
https://shrt10.com/wYsaS
https://shrt10.com/IfkWKDmY

 

 

 

WE need Staff/ Uploader/ Capper best quality For DX-TV
For More INFO Send PM for Admin on Email : [email protected]

X