WWE Uncool with Alexa Bliss E03 James Iglehart

Watch WWE Uncool with Alexa Bliss E03 James Iglehart 1080p DX-TV

 

WWE Uncool with Alexa Bliss

 

 WWE Uncool with Alexa Bliss
 


 

 

WWE Uncool with Alexa Bliss E03 James Iglehart

 

 

UNCOOL WITH ALEXA BLISS (EP. 2): JAMES IGLEHART

The Tony Award-winning, “Hamilton”-rapping Genie from “Aladdin” himself looks back on his early introduction to wrestling.

his unique high school nickname and a painful first kiss.

Watch the complete third episode of the “Uncool With Alexa Bliss” .

official WWE podcast courtesy of the company’s YouTube channel via the video embedded below.

WWE Uncool with Alexa Bliss

For those who missed the one-two combo that “The Goddess of WWE” came out swinging with when she launched.

her official WWE podcast with the first two episodes dropping on the same day last Tuesday, September 29, 2020, you need-not-worry.

WWE has all three episodes available in their entirety via their official YouTube channel!

So, in addition to the brand new third episode embedded above, you can also watch the first.

and second episodes of “Uncool With Alexa Bliss” with special guests The Miz and Lance Bass from NSYNC via the two videos featured below.

WWE Uncool with Alexa Bliss

Complete name : WWE.Uncool.with.Alexa.Bliss.E03.James.Iglehart.1080p.WEB.h264-HEEL.mp4
Format : MPEG-4
Format profile : Base Media
Codec ID : isom
File size : 2.05 GiB
Duration : 36 min 43 s
Overall bit rate : 7 973 kb/s
Writing application : Lavf58.32

WWE Uncool with Alexa Bliss

Video
ID : 1
Format : AVC
Format/Info : Advanced
Duration : 36 min 43 s
Bit rate : 7 808 kb/s
Width : 1 920 pixels
Height : 1 080 pixels
Display aspect ratio : 16:9
Frame rate mode : Constant
Frame rate : 30.000 FPS
Color space : YUV
Chroma subsampling : 4:2:0
Bit depth : 8 bits
Scan type : Progressive
Bits/(Pixel*Frame) : 0.126
Stream size : 1.99 GiB (97%)

WWE Uncool with Alexa Bliss

Audio
ID : 2
Format : AAC LC
Format/Info : Advanced Audio
Codec ID : mp4a-40-2
Duration : 36 min 43 s
Bit rate mode : Constant
Bit rate : 192 kb/s
Channel(s) : 2 channels
Channel layout : L R
Sampling rate : 48.0 kHz
Frame rate : 46.875 FPS (1024 SPF)
Compression mode : Lossy
Stream size : 51.3 MiB (2%)
Default : Yes
Alternate group : 1

 

 

 

WWE Uncool with Alexa Bliss E03 James Iglehart

 

 

 

 

Watch online

 

 

 

 

 

Server 1

 

 

 

 

watch now

 

 

 

 

Server-2

 

 

 

WWE Uncool with Alexa Bliss

 

 

 

 

Server-3

 

 

 

watch now

 

 

 

 

Uploaded By Site DX-TV.com

 

 

 

 

Download Free Links with normal and high Speed [ more 14 hosts ]  

 

 

 

http://shrt10.com/StOXJA8bn
http://shrt10.com/EOub6gfx
http://shrt10.com/PIGcS
http://shrt10.com/qEt9n
http://shrt10.com/bF5CTzE
http://shrt10.com/dvfAIin
http://shrt10.com/AqAVhFD
http://shrt10.com/f0PTNQ1ls
http://shrt10.com/2CjGGfj
http://shrt10.com/zqQX3

 

 

 

 

Download Links with premium High Speed   

 

 

 

nitroflare.com

 

 

 

rapidgator.net

 

 

 

uploaded.net

 

 

 

uploadgig.com

 

 

 

 

 

dx-tv.com

 

urlfree.net

Leave a Reply

Your email address will not be published. Required fields are marked *

This site uses Akismet to reduce spam. Learn how your comment data is processed.