WWE TLC 2020 Watch Online Kickoff 1080p DX-TV

WWE TLC 2020 Watch Online Kickoff 720p /1080p DX-TV

WWE TLC 2020 Watch Online

 WWE TLC 2020 Watch Online

 

Download Links with premium High Speed   

 

 

dropapk.to

http://shrt10.com/FB8qvc
http://shrt10.com/aNbgv

 

 

nitroflare.com

http://shrt10.com/2KHco6ca
http://shrt10.com/GeWDrivAm

 

 

rapidgator.net

http://shrt10.com/x651orq
http://shrt10.com/NqBFtF0

 

 

uploaded.net

http://shrt10.com/IfX0dQ2B
http://shrt10.com/sfJTMx3D3

 

 

uploadgig.com

http://shrt10.com/kXimXBqGL
http://shrt10.com/6j8snTk0T

 

 

 

Watch online

 

Server 1

 

 

 

 

WWE TLC 2020 Watch Online

 

 

 

 

Server-2

 

 

 

 

watch now

 

 

Uploaded By Site DX-TV.com

 

 

 

[su_expand more_text=”Show More Info” less_text=”Close all Info” height=”50″ text_color=”#000000″ link_color=”#e25f8b” link_style=”button” more_icon=”icon: arrow-down” less_icon=”icon: arrow-up”]
Complete name : WWE.TLC.2020.Kickoff.1080p.WEBRip.h264-TJ.mp4
Format : MPEG-4
Format profile : Base Media
File size : 3.26 GiB
Duration : 58 min 45 s
Overall bit rate mode : Variable
Overall bit rate : 7 955 kb/s
Writing application : Lavf58.25.100

WWE TLC 2020 Watch Online

Video
ID : 1
Format : AVC
Duration : 58 min 45 s
Bit rate : 7 808 kb/s
Width : 1 920 pixels
Height : 1 080 pixels
Display aspect ratio : 16:9
Frame rate mode : Constant
Frame rate : 30.000 FPS
Color space : YUV
Chroma subsampling : 4:2:0
Bit depth : 8 bits
Scan type : Progressive
Bits/(Pixel*Frame) : 0.126
Stream size : 3.18 GiB (97%)

Audio
ID : 2
Format : AAC LC
Format/Info : Advanced Audio
Codec ID : mp4a-40-2
Duration : 58 min 45 s
Bit rate mode : Variable
Bit rate : 192 kb/s
Maximum bit rate : 211 kb/s
Channel(s) : 2 channels
Channel layout : L R
Sampling rate : 48.0 kHz
Frame rate : 46.875 FPS (1024 SPF)
Compression mode : Lossy
Stream size : 81.1 MiB (2%)
Default : Yes
Alternate group : 1

WWE TLC 2020 Watch Online

Complete name : WWE.TLC.2020.Kickoff.720p.WEB.h264-HEEL.mp4
Format : MPEG-4
Format profile : Base Media
File size : 1.74 GiB
Duration : 59 min 6 s
Overall bit rate : 4 206 kb/s
Law rating : N/A
Writing application : Lavf58.32.104

Video
ID : 1
Format : AVC
Duration : 59 min 6 s
Bit rate : 4 071 kb/s
Width : 1 280 pixels
Height : 720 pixels
Display aspect ratio : 16:9
Frame rate mode : Variable
Frame rate : 30.000 FPS
Minimum frame rate : 29.412 FPS
Maximum frame rate : 30.303 FPS
Color space : YUV
Chroma subsampling : 4:2:0
Bit depth : 8 bits
Scan type : Progressive
Bits/(Pixel*Frame) : 0.147
Stream size : 1.68 GiB (97%)
Codec configuration box : avc

WWE TLC 2020 Watch Online

Audio
ID : 2
Format : AAC LC
Format/Info : Advanced Audio
Codec ID : mp4a-40-2
Duration : 59 min 5 s
Bit rate mode : Constant
Bit rate : 125 kb/s
Channel(s) : 2 channels
Channel layout : L R
Sampling rate : 48.0 kHz
Frame rate : 46.875 FPS (1024 SPF)
Compression mode : Lossy
Stream size : 53.0 MiB (3%)
Default : Yes
Alternate group : 1

Text #1
ID : 1-CC1
Format : EIA-608
Muxing mode : SCTE 128 / DTVCC Transport
Muxing mode, more info : Muxed in Video #1
Duration : 59 min 6 s
Bit rate mode : Constant
Stream size : 0.00 Byte (0%)
CaptionServiceName : CC1

WWE TLC 2020 Watch  

Text #2
ID : 1-CC3
Format : EIA-608
Muxing mode : SCTE 128 / DTVCC Transport
Muxing mode, more info : Muxed in Video #1
Duration : 59 min 6 s
Bit rate mode : Constant
Stream size : 0.00 Byte (0%)
CaptionServiceName : CC3

Text #3
ID : 1-1
Format : EIA-708
Muxing mode : SCTE 128 / DTVCC Transport
Muxing mode, more info : Muxed in Video #1
Duration : 59 min 6 s
Bit rate mode : Constant
Stream size : 0.00 Byte (0%)

WWE TLC 2020   

Text #4
ID : 1-2
Format : EIA-708
Muxing mode : SCTE 128 / DTVCC Transport
Muxing mode, more info : Muxed in Video #1
Duration : 59 min 6 s
Bit rate mode : Constant
Stream size : 0.00 Byte (0%)

Text #5
ID : 1-3
Format : EIA-708
Muxing mode : SCTE 128 / DTVCC Transport
Muxing mode, more info : Muxed in Video #1
Duration : 59 min 6 s
Bit rate mode : Constant
Stream size : 0.00 Byte (0%)

WWE TLC 2020 Watch Online

Text #6
ID : 1-4
Format : EIA-708
Muxing mode : SCTE 128 / DTVCC Transport
Muxing mode, more info : Muxed in Video #1
Duration : 59 min 6 s
Bit rate mode : Constant
Stream size : 0.00 Byte (0%)

Text #7
ID : 1-5
Format : EIA-708
Muxing mode : SCTE 128 / DTVCC Transport
Muxing mode, more info : Muxed in Video #1
Duration : 59 min 6 s
Bit rate mode : Constant
Stream size : 0.00 Byte (0%)

 TLC 2020 Watch Online

Text #8
ID : 1-6
Format : EIA-708
Muxing mode : SCTE 128 / DTVCC Transport
Muxing mode, more info : Muxed in Video #1
Duration : 59 min 6 s
Bit rate mode : Constant
Stream size : 0.00 Byte (0%)

 

[/su_expand]

 

https://dx-tv.com/

Leave a Reply

Your email address will not be published. Required fields are marked *

This site uses Akismet to reduce spam. Learn how your comment data is processed.