WWE The R Truth Game Show S01E02 Online

Watch WWE The R Truth Game Show S01E02 Going Cat Crazy 1080p DX-TV

 

WWE Show Online
WWE The R Truth

WWE The R Truth Game Show S01E02 Online

 

Complete name : WWE.The.R-Truth.Game.Show.S01E02.Going.Cat.Crazy.1080p.WEB.h264-HEEL.mp4
Format : MPEG-4
Format profile : Base Media
Codec ID : isom
File size : 1.38 GiB
Duration : 24 min 59 s
Overall bit rate mode : Variable
Overall bit rate : 7 915 kb/s
Writing application : Lavf 

The R Truth Game Show S01E02 Online

Video
ID : 1
Format : AVC
Codec ID : avc1
Duration : 24 min 59 s
Bit rate : 7 808 kb/s
Width : 1 920 pixels
Height : 1 080 pixels
Display aspect ratio : 16:9
rate mode : Constant
Frame rate : 30.000 FPS
Color space : YUV
Chroma sub sampling : 4:2:0
Bit depth : 8 bits
Scan type : Progressive
Bits/(Pixel*Frame) : 0.126
Stream size : 1.35 GiB (97%)

 The R Truth Game Show S01E02 Online

Audio
ID : 2
Format : AAC LC
Format/Info : Advanced
Codec ID : mp4a-40-2
Duration : 24 min 59 s
rate mode : Variable
Bit rate : 192 kb/s
Maximum bit rate : 325 kb/s
Channel(s) : 2 channels
Channel layout : L R
Sampling rate : 48.0 kHz
Frame rate : 46.875 FPS (1024 SPF)
Compression mode : Lossy
Stream size : 34.5 MiB (2%)
Default : Yes
Alternate group : 1

 

The R Truth Game Show S01E02 Online

 

During his appearance on WWE’s The Bump this morning, it was announced that “The R-Truth Game Show” will premiere on the WWE Network on Tuesday, July 14.

A brief preview revealed that the game show was done remotely over video. Alexa Bliss, Natalya, Sheamus, and The Miz were shown during the preview.

R-Truth said a lot of his ingenuity went into the game show, he keeps account of the points, there are a lot of prizes,

and there are trivia games, scavenger hunts, and other kinds of games.

The concept of an R-Truth game show on the WWE Network was first planned years ago. A pilot was filmed in 2017, but the series ended up never airing.

R-Truth is the current WWE 24/7 Champion. He won the title from Rob Gronkowski on Raw earlier this month.

 

WWE The R Truth Game Show S01E02 Online

 

 

 

Watch online

 

 

Server 1

 

 

 

 

watch now

 

 

 

 

Server 2

 

 

 

WWE Show Online

 

 

 

Server-3

 

 

 

WWE Show Online

 

 

 

Uploaded By Site DX-TV.com

 

 

 

Download with premium account Links 

 

 

Keep2Share

 

 

nitroflare.com

 

 

rapidgator.net

 

 

uploadgig.com

 

 

 

dx-tv.com

 

urlfree.net

Leave a Reply

Your email address will not be published. Required fields are marked *

This site uses Akismet to reduce spam. Learn how your comment data is processed.