WWE The Bump 2021 01 27 1080p DX-TV

WWE The Bump 2021 01 27 1080p DX-TV

WWE The Bump

 WWE The Bump

 

Download Links with premium High Speed   

 

 

dropapk.to

 

http://shrt10.com/4NJVGzcu

 

uploaded.net

http://shrt10.com/ClHC54

 

http://shrt10.com/giJK0mw

 

Watch WWE online

 

Server 1

 

 

 

 

watch now

 

 

 

 

Server-2

 

 

 

 

watch now

 

 

Uploaded By Site DX-TV.com

 

 

Complete name : WWE.The.Bump.2021.01.27.1080p.WEB.h264-HEEL.mp4
Format : MPEG-4
Format profile : Base Media
Codec ID : isom
File size : 3.75 GiB
Duration : 1 h 28 min
Overall bit rate mode : Variable
Overall bit rate : 6 073 kb/s
Writing application : Lavf58.32.104

WWE

Video
ID : 1
Format : AVC
Format/Info : Advanced Video
Duration : 1 h 28 min
Bit rate : 5 938 kb/s
Width : 1 920 pixels
Height : 1 080 pixels
Display aspect ratio : 16:9
Frame rate mode : Variable
Frame rate : 30.000 FPS
Minimum frame rate : 29.412 FPS
Maximum frame rate : 90 000.000 FPS
Color space : YUV
Chroma subsampling : 4:2:0
Bit depth : 8 bits
Scan type : Progressive
Bits/(Pixel*Frame) : 0.095
Stream size : 3.67 GiB (98%)

WWE

Audio
ID : 2
Format : AAC LC
Format/Info : Advanced Audio Codec Low Complexity
Codec ID : mp4a-40-2
Duration : 1 h 28 min
Bit rate mode : Variable
Bit rate : 125 kb/s
Maximum bit rate : 131 kb/s
Channel(s) : 2 channels
Channel layout : L R
Sampling rate : 48.0 kHz
Frame rate : 46.875 FPS (1024 SPF)
Compression mode : Lossy
Stream size : 79.3 MiB (2%)
Default : Yes
Alternate group : 1

Text #1
ID : 1-CC1
Format : EIA-608
Muxing mode : SCTE 128 / DTVCC Transport
Muxing mode, more info : Muxed in Video #1
Duration : 1 h 28 min
Bit rate mode : Constant
Stream size : 0.00 Byte (0%)
CaptionServiceName : CC1

WWE

Text #2
ID : 1-CC3
Format : EIA-608
Muxing mode : SCTE 128 / DTVCC Transport
Muxing mode, more info : Muxed in Video #1
Duration : 1 h 28 min
Bit rate mode : Constant
Stream size : 0.00 Byte (0%)
CaptionServiceName : CC3

Text #3
ID : 1-2
Format : EIA-708
Muxing mode : SCTE 128 / DTVCC Transport
Muxing mode, more info : Muxed in Video #1
Duration : 1 h 28 min
Bit rate mode : Constant
Stream size : 0.00 Byte (0%)

WWE

Text #4
ID : 1-4
Format : EIA-708
Muxing mode : SCTE 128 / DTVCC Transport
Muxing mode, more info : Muxed in Video #1
Duration : 1 h 28 min
Bit rate mode : Constant
Stream size : 0.00 Byte (0%)

Text #5
ID : 1-6
Format : EIA-708
Muxing mode : SCTE 128 / DTVCC Transport
Muxing mode, more info : Muxed in Video #1
Duration : 1 h 28 min
Bit rate mode : Constant
Stream size : 0.00 Byte (0%)

WWE

 

https://dx-tv.com/

You May Also Like

Leave a Reply

Your email address will not be published. Required fields are marked *

This site uses Akismet to reduce spam. Learn how your comment data is processed.