WWE The Bump 2020 03 04 1080p

Watch WWE The Bump 2020 03 04 1080p WEB DX-TV

 

WWE

 WWE

 

 

WWE The Bump 2020 03 04 1080p

 

Complete name : WWE.The.Bump.2020.03.04.1080p WEB x264 DX-TV.mp4
Format : MPEG-4
Format profile : Base Media
Codec ID : isom
File size : 3.51 GiB
Duration : 1 h 29 min
Overall bit rate mode : Variable
Overall bit rate : 5 623 kb/s
Movie name : March 4, 2020
Recorded date : 2020

Video
ID : 1
Format : AVC
Duration : 1 h 29 min
Bit rate : 5 487 kb/s
Width : 1 920 pixels
Height : 1 080 pixels
Display aspect ratio : 16:9
Frame rate mode : Variable
Frame rate : 30.000 FPS
Minimum frame rate : 29.412 FPS
Maximum frame rate : 1 500.000 FPS
Color space : YUV
Chroma subsampling : 4:2:0
Bit depth : 8 bits
Scan type : Progressive
Bits/(Pixel*Frame) : 0.088
Stream size : 3.43 GiB (98%)

Audio
ID : 2
Format : AAC LC
Format/Info : AdvancedĀ 
Codec ID : mp4a-40-2
Duration : 1 h 29 min
Bit rate mode : WWE
Bit rate : 125 kb/s
Maximum bit rate : 135 kb/s
Channel(s) : 2 channels
Channel layout : L R
Sampling rate : 48.0 kHz
Frame rate : 46.875 FPS (1024 SPF)
Compression mode : Lossy
Stream size : 80.2 MiB (2%)
Default : Yes
Alternate group : 1

Text #1
ID : 1-CC1
Format : EIA-608
Duration : 1 h 29 min
Bit rate mode : Constant
Stream size : 0.00 Byte (0%)
CaptionServiceName : CC1

Text #2
ID : 1-T1
Format : EIA-608
Duration : 1 h 29 min
Bit rate mode : WWE
Stream size : 0.00 Byte (0%)
CaptionServiceName : T1

Text #3
ID : 1-CC3
Format : EIA-608
Duration : 1 h 29 min
Bit rate mode : Constant
Stream size : 0.00 Byte (0%)
CaptionServiceName : CC3

Text #4
ID : 1-1
Format : EIA-708
Duration : 1 h 29 min
Bit rate mode : Constant
Stream size : 0.00 Byte (0%)

Text #5
ID : 1-2
Format : EIA-708
Duration : 1 h 29 min
Bit rate mode : WWE
Stream size : 0.00 Byte (0%)

 

Watch online

 

Server 1

 

 

 

 

watch now

 

 

 

 

Server 2

 

 

 

watch now

 

 

 

WWE The Bump 2020 03 04 1080p

 

 

Uploaded By Site DX-TV.com

 

Download with premium account LinksĀ 

 

 

Keep2Share

 

 

mixdrop.co

 

 

alfafile.net

 

 

nitroflare.com

 

 

rapidgator.net

 

 

uploadgig.com

 

 

 

dx-tv.com