WWE The Bump 2020 02 12 1080p

Watch WWE The Bump 2020 02 12 1080p DX-TV

 

 

 

 WWE

 

 

 

 

WWE The Bump 2020 02 12 1080p

 

 

 

General
Complete name : WWE.The.Bump.2020.02.12.1080p.WEB.h264-HEEL.mp4
Format : MPEG-4
Format profile : Base Media
Codec ID : isom
File size : 3.45 GiB
Duration : 1 h 29 min
Overall bit rate mode : Variable
Overall bit rate : 5 530 kb/s
Writing application : Lavf58.32.104

Video
ID : 1
Format : AVC
Duration : 1 h 29 min
Bit rate : 5 395 kb/s
Width : 1 920 pixels
Height : 1 080 pixels
Display aspect ratio : 16:9
Frame rate mode : Variable
Frame rate : 30.000 FPS
Minimum frame rate : 29.412 FPS
Maximum frame rate : 1 500.000 FPS
Color space : YUV
Chroma subsampling : 4:2:0
Bit depth : 8 bits
Scan type : Progressive
Bits/(Pixel*Frame) : 0.087
Stream size : 3.37 GiB (98%)

Audio
ID : 2
Format : AAC LC
Format/Info : Advanced Audio Codec Low Complexity
Codec ID : mp4a-40-2
Duration : 1 h 29 min
Bit rate mode : Variable
Bit rate : 125 kb/s
Maximum bit rate : 137 kb/s
Channel(s) : 2 channels
Channel layout : L R
Sampling rate : 48.0 kHz
Frame rate : 46.875 FPS (1024 SPF)
Compression mode : Lossy
Stream size : 80.2 MiB (2%)
Default : Yes
Alternate group : 1

Text #1
ID : 1-CC1
Format : EIA-608
Muxing mode : SCTE 128 / DTVCC Transport
Muxing mode, more info : Muxed in Video #1
Duration : 1 h 29 min
Bit rate mode : Constant
Stream size : 0.00 Byte (0%)
CaptionServiceName : CC1

Text #2
ID : 1-CC3
Format : EIA-608
Muxing mode : SCTE 128 / DTVCC Transport
Muxing mode, more info : Muxed in Video #1
Duration : 1 h 29 min
Bit rate mode : Constant
Stream size : 0.00 Byte (0%)
CaptionServiceName : CC3

 

 

Watch online

 

Server 1

 

 

 

 

 

 

 

 

 

Server 2

 

 

 

 

 

 

 

Server–3

 

 

 

 

 

 

 

WWE The Bump 2020 02 12 1080p

 

 

Uploaded By Site DX-TV.com

 

1fichier.com 

https://shrt10.com/erlsw
https://shrt10.com/nFoVU3

 

DDL.to

 

https://shrt10.com/jhmZCRB
https://shrt10.com/HM7qI

 

earn4files.com

https://shrt10.com/pjU95H
https://shrt10.com/6YcEVXJaE

 

rockfile.co

https://shrt10.com/3MrxcO
https://shrt10.com/2Ovs7nWn

 

 

Download with premium account Links 

 

 

Keep2Share

 

 

nitroflare.com

 

 

rapidgator.net

 

 

uploadgig.com

 

 

 

dx-tv.com