WWE The Best Of Stone Colds Best WrestleMania 720p

Watch WWE The Best Of WWE Stone Colds Best WrestleMania Matches 720p DX-TV

 
WWE

 WWE

 

 

WWE The Best Of Stone Colds Best WrestleMania 720p

 

Complete name : WWE.The.Best.Of.WWE.E11.Stone.Colds.Best.WrestleMania.Matches.720p.Hi.WEB.h264-HEEL.mp4
Format : MPEG-4
Format profile : WWE
Codec ID : isom
File size : 3.85 GiB
Duration : 2 h 35 min
Overall bit rate mode : WWE
Overall bit rate : 3 548 kb/s
Writing application : Lavf58.32.104

Video
ID : 1
Format : AVC
Duration : 2 h 35 min
Bit rate : 3 372 kb/s
Width : 1 280 pixels
Height : 720 pixels
Display aspect ratio : 16:9
Frame rate mode : WWE
Frame rate : 30.000 FPS
Color space : YUV
Chroma subsampling : 4:2:0
Bit depth : 8 bits
Scan type : WWE
Bits/(Pixel*Frame) : 0.122
Stream size : 3.63 GiB (94%)

 The Best Of Stone Colds Best WrestleMania 720p
Audio
ID : 2
Format : AAC LC
Format/Info : WWE
Codec ID : mp4a-40-2
Duration : 2 h 35 min
Bit rate mode : Variable
Bit rate : 192 kb/s
Maximum bit rate : 537 kb/s
Channel(s) : 2 channels
Channel layout : L R
Sampling rate : 48.0 kHz
Frame rate : 46.875 FPS (1024 SPF)
Compression mode : Lossy
Stream size : 214 MiB (5%)
Default : Yes
Alternate group : WWE

WWE The Best Of Stone Colds Best WrestleMania 720p

 

 

Watch online

 

 

Server 1

 

 

 

 

watch now

 

 

 

 

Server 2

 

 

 

watch now

 

 

 

WWE The Best Of Stone Colds Best WrestleMania 720p

 

 

Uploaded By Site DX-TV.com

 

 

Download with Free Links 

 

 

1fichier.com

 

 

 

Download with premium account Links 

 

 

Keep2Share

 

 

nitroflare.com

 

 

rapidgator.net

 

 

uploadgig.com

 

 

 

dx-tv.com

 

urlfree.net

You May Also Like